  0
SECTION
  2
HEADER
  9
$ACADVER
  1
AC1018
  9
$ACADMAINTVER
 70
   104
  9
$DWGCODEPAGE
  3
ANSI_1252
  9
$LASTSAVEDBY
  1
lwoollen
  9
$INSBASE
 10
-0.0000000000001141
 20
0.0000000000000028
 30
0.0
  9
$EXTMIN
 10
-269.9999999999999
 20
-125.0
 30
0.0
  9
$EXTMAX
 10
339.4838796203883
 20
222.7678324046048
 30
0.0
  9
$LIMMIN
 10
0.0
 20
0.0
  9
$LIMMAX
 10
420.0
 20
297.0
  9
$ORTHOMODE
 70
     1
  9
$REGENMODE
 70
     1
  9
$FILLMODE
 70
     1
  9
$QTEXTMODE
 70
     0
  9
$MIRRTEXT
 70
     1
  9
$LTSCALE
 40
0.25
  9
$ATTMODE
 70
     1
  9
$TEXTSIZE
 40
5.0
  9
$TRACEWID
 40
10.0
  9
$TEXTSTYLE
  7
ROMANS
  9
$CLAYER
  8
40MM-DIMS
  9
$CELTYPE
  6
ByLayer
  9
$CECOLOR
 62
   256
  9
$CELTSCALE
 40
1.0
  9
$DISPSILH
 70
     0
  9
$DIMSCALE
 40
0.0
  9
$DIMASZ
 40
4.0
  9
$DIMEXO
 40
3.0
  9
$DIMDLI
 40
10.0
  9
$DIMRND
 40
0.0
  9
$DIMDLE
 40
1.25
  9
$DIMEXE
 40
3.0
  9
$DIMTP
 40
0.0
  9
$DIMTM
 40
0.0
  9
$DIMTXT
 40
3.0
  9
$DIMCEN
 40
-3.0
  9
$DIMTSZ
 40
0.0
  9
$DIMTOL
 70
     0
  9
$DIMLIM
 70
     0
  9
$DIMTIH
 70
     0
  9
$DIMTOH
 70
     0
  9
$DIMSE1
 70
     0
  9
$DIMSE2
 70
     0
  9
$DIMTAD
 70
     1
  9
$DIMZIN
 70
    12
  9
$DIMBLK
  1

  9
$DIMASO
 70
     1
  9
$DIMSHO
 70
     0
  9
$DIMPOST
  1

  9
$DIMAPOST
  1

  9
$DIMALT
 70
     0
  9
$DIMALTD
 70
     2
  9
$DIMALTF
 40
0.04
  9
$DIMLFAC
 40
1.0
  9
$DIMTOFL
 70
     0
  9
$DIMTVP
 40
0.0
  9
$DIMTIX
 70
     0
  9
$DIMSOXD
 70
     0
  9
$DIMSAH
 70
     0
  9
$DIMBLK1
  1

  9
$DIMBLK2
  1

  9
$DIMSTYLE
  2
1-2
  9
$DIMCLRD
 70
     0
  9
$DIMCLRE
 70
     0
  9
$DIMCLRT
 70
     0
  9
$DIMTFAC
 40
0.75
  9
$DIMGAP
 40
1.5
  9
$DIMJUST
 70
     0
  9
$DIMSD1
 70
     0
  9
$DIMSD2
 70
     0
  9
$DIMTOLJ
 70
     1
  9
$DIMTZIN
 70
    12
  9
$DIMALTZ
 70
    12
  9
$DIMALTTZ
 70
    12
  9
$DIMUPT
 70
     0
  9
$DIMDEC
 70
     2
  9
$DIMTDEC
 70
     2
  9
$DIMALTU
 70
     2
  9
$DIMALTTD
 70
     2
  9
$DIMTXSTY
  7
STANDARD
  9
$DIMAUNIT
 70
     0
  9
$DIMADEC
 70
     0
  9
$DIMALTRND
 40
0.0
  9
$DIMAZIN
 70
     0
  9
$DIMDSEP
 70
    46
  9
$DIMATFIT
 70
     3
  9
$DIMFRAC
 70
     0
  9
$DIMLDRBLK
  1

  9
$DIMLUNIT
 70
     2
  9
$DIMLWD
 70
    -2
  9
$DIMLWE
 70
    -2
  9
$DIMTMOVE
 70
     2
  9
$LUNITS
 70
     2
  9
$LUPREC
 70
     2
  9
$SKETCHINC
 40
1.0
  9
$FILLETRAD
 40
0.0
  9
$AUNITS
 70
     0
  9
$AUPREC
 70
     4
  9
$MENU
  1
acad
  9
$ELEVATION
 40
0.0
  9
$PELEVATION
 40
0.0
  9
$THICKNESS
 40
0.0
  9
$LIMCHECK
 70
     0
  9
$CHAMFERA
 40
0.0
  9
$CHAMFERB
 40
0.0
  9
$CHAMFERC
 40
0.0
  9
$CHAMFERD
 40
0.0
  9
$SKPOLY
 70
     0
  9
$TDCREATE
 40
2450011.434378357
  9
$TDUCREATE
 40
2450011.434378357
  9
$TDUPDATE
 40
2455519.517250429
  9
$TDUUPDATE
 40
2455519.517250429
  9
$TDINDWG
 40
0.0661265278
  9
$TDUSRTIMER
 40
0.0661265278
  9
$USRTIMER
 70
     1
  9
$ANGBASE
 50
0.0
  9
$ANGDIR
 70
     0
  9
$PDMODE
 70
     0
  9
$PDSIZE
 40
0.0
  9
$PLINEWID
 40
0.0
  9
$SPLFRAME
 70
     0
  9
$SPLINETYPE
 70
     6
  9
$SPLINESEGS
 70
     8
  9
$HANDSEED
  5
239
  9
$SURFTAB1
 70
    18
  9
$SURFTAB2
 70
    18
  9
$SURFTYPE
 70
     6
  9
$SURFU
 70
    18
  9
$SURFV
 70
    18
  9
$UCSBASE
  2

  9
$UCSNAME
  2

  9
$UCSORG
 10
0.0
 20
0.0
 30
0.0
  9
$UCSXDIR
 10
1.0
 20
0.0
 30
0.0
  9
$UCSYDIR
 10
0.0
 20
1.0
 30
0.0
  9
$UCSORTHOREF
  2

  9
$UCSORTHOVIEW
 70
     0
  9
$UCSORGTOP
 10
0.0
 20
0.0
 30
0.0
  9
$UCSORGBOTTOM
 10
0.0
 20
0.0
 30
0.0
  9
$UCSORGLEFT
 10
0.0
 20
0.0
 30
0.0
  9
$UCSORGRIGHT
 10
0.0
 20
0.0
 30
0.0
  9
$UCSORGFRONT
 10
0.0
 20
0.0
 30
0.0
  9
$UCSORGBACK
 10
0.0
 20
0.0
 30
0.0
  9
$PUCSBASE
  2

  9
$PUCSNAME
  2

  9
$PUCSORG
 10
0.0
 20
0.0
 30
0.0
  9
$PUCSXDIR
 10
1.0
 20
0.0
 30
0.0
  9
$PUCSYDIR
 10
0.0
 20
1.0
 30
0.0
  9
$PUCSORTHOREF
  2

  9
$PUCSORTHOVIEW
 70
     0
  9
$PUCSORGTOP
 10
0.0
 20
0.0
 30
0.0
  9
$PUCSORGBOTTOM
 10
0.0
 20
0.0
 30
0.0
  9
$PUCSORGLEFT
 10
0.0
 20
0.0
 30
0.0
  9
$PUCSORGRIGHT
 10
0.0
 20
0.0
 30
0.0
  9
$PUCSORGFRONT
 10
0.0
 20
0.0
 30
0.0
  9
$PUCSORGBACK
 10
0.0
 20
0.0
 30
0.0
  9
$USERI1
 70
     0
  9
$USERI2
 70
     0
  9
$USERI3
 70
     0
  9
$USERI4
 70
     0
  9
$USERI5
 70
     0
  9
$USERR1
 40
0.0
  9
$USERR2
 40
0.0
  9
$USERR3
 40
0.0
  9
$USERR4
 40
0.0
  9
$USERR5
 40
0.0
  9
$WORLDVIEW
 70
     1
  9
$SHADEDGE
 70
     3
  9
$SHADEDIF
 70
    70
  9
$TILEMODE
 70
     1
  9
$MAXACTVP
 70
    16
  9
$PINSBASE
 10
0.0
 20
0.0
 30
0.0
  9
$PLIMCHECK
 70
     0
  9
$PEXTMIN
 10
1.614583349603368
 20
1.129749872553066
 30
0.0
  9
$PEXTMAX
 10
14.5312501464303
 20
10.1677488529776
 30
0.0
  9
$PLIMMIN
 10
-0.1979161059762549
 20
-0.1979166691697489
  9
$PLIMMAX
 10
16.34375024029589
 20
11.49541603298638
  9
$UNITMODE
 70
     0
  9
$VISRETAIN
 70
     0
  9
$PLINEGEN
 70
     0
  9
$PSLTSCALE
 70
     1
  9
$TREEDEPTH
 70
  3020
  9
$CMLSTYLE
  2
Standard
  9
$CMLJUST
 70
     0
  9
$CMLSCALE
 40
1.0
  9
$PROXYGRAPHICS
 70
     1
  9
$MEASUREMENT
 70
     0
  9
$CELWEIGHT
370
    -1
  9
$ENDCAPS
280
     0
  9
$JOINSTYLE
280
     0
  9
$LWDISPLAY
290
     0
  9
$INSUNITS
 70
     0
  9
$HYPERLINKBASE
  1

  9
$STYLESHEET
  1

  9
$XEDIT
290
     1
  9
$CEPSNTYPE
380
     0
  9
$PSTYLEMODE
290
     1
  9
$FINGERPRINTGUID
  2
{B642D163-EE5F-485A-BC29-E6228F229352}
  9
$VERSIONGUID
  2
{C9A37E1E-3FF0-4CBC-9C67-DBB426389FF3}
  9
$EXTNAMES
290
     1
  9
$PSVPSCALE
 40
0.0
  9
$OLESTARTUP
290
     0
  9
$SORTENTS
280
   127
  9
$INDEXCTL
280
     0
  9
$HIDETEXT
280
     0
  9
$XCLIPFRAME
290
     0
  9
$HALOGAP
280
     0
  9
$OBSCOLOR
 70
   257
  9
$OBSLTYPE
280
     0
  9
$INTERSECTIONDISPLAY
280
     0
  9
$INTERSECTIONCOLOR
 70
   257
  9
$DIMASSOC
280
     1
  9
$PROJECTNAME
  1

  0
ENDSEC
  0
SECTION
  2
CLASSES
  0
CLASS
  1
ACDBDICTIONARYWDFLT
  2
AcDbDictionaryWithDefault
  3
ObjectDBX Classes
 90
        0
 91
        1
280
     0
281
     0
  0
CLASS
  1
MATERIAL
  2
AcDbMaterial
  3
ObjectDBX Classes
 90
     1153
 91
        3
280
     0
281
     0
  0
CLASS
  1
VISUALSTYLE
  2
AcDbVisualStyle
  3
ObjectDBX Classes
 90
     4095
 91
       19
280
     0
281
     0
  0
CLASS
  1
TABLESTYLE
  2
AcDbTableStyle
  3
ObjectDBX Classes
 90
     4095
 91
        1
280
     0
281
     0
  0
CLASS
  1
SCALE
  2
AcDbScale
  3
ObjectDBX Classes
 90
     1153
 91
       33
280
     0
281
     0
  0
CLASS
  1
MLEADERSTYLE
  2
AcDbMLeaderStyle
  3
ACDB_MLEADERSTYLE_CLASS
 90
     4095
 91
        1
280
     0
281
     0
  0
CLASS
  1
CELLSTYLEMAP
  2
AcDbCellStyleMap
  3
ObjectDBX Classes
 90
     1152
 91
        2
280
     0
281
     0
  0
CLASS
  1
DICTIONARYVAR
  2
AcDbDictionaryVar
  3
ObjectDBX Classes
 90
        0
 91
        9
280
     0
281
     0
  0
ENDSEC
  0
SECTION
  2
TABLES
  0
TABLE
  2
VPORT
  5
1D
330
0
100
AcDbSymbolTable
 70
     1
  0
VPORT
  5
1E
330
1D
100
AcDbSymbolTableRecord
100
AcDbViewportTableRecord
  2
*Active
 70
     0
 10
0.0
 20
0.0
 11
1.0
 21
1.0
 12
73.74330671589155
 22
78.6444204838483
 13
0.0
 23
0.0
 14
5.0
 24
5.0
 15
10.0
 25
10.0
 16
0.0
 26
0.0
 36
1.0
 17
0.0
 27
0.0
 37
0.0
 40
479.2674152321158
 41
1.864035087719298
 42
50.0
 43
0.0
 44
0.0
 50
0.0
 51
0.0
 71
     0
 72
   100
 73
     1
 74
     1
 75
     0
 76
     0
 77
     0
 78
     0
281
     0
 65
     1
110
0.0
120
0.0
130
0.0
111
1.0
121
0.0
131
0.0
112
0.0
122
1.0
132
0.0
 79
     0
146
0.0
  0
ENDTAB
  0
TABLE
  2
LTYPE
  5
18
330
0
100
AcDbSymbolTable
 70
     3
  0
LTYPE
  5
19
330
18
100
AcDbSymbolTableRecord
100
AcDbLinetypeTableRecord
  2
ByBlock
 70
     0
  3

 72
    65
 73
     0
 40
0.0
  0
LTYPE
  5
1A
330
18
100
AcDbSymbolTableRecord
100
AcDbLinetypeTableRecord
  2
ByLayer
 70
     0
  3

 72
    65
 73
     0
 40
0.0
  0
LTYPE
  5
A
330
18
100
AcDbSymbolTableRecord
100
AcDbLinetypeTableRecord
  2
CONTINUOUS
 70
     0
  3
Solid line
 72
    65
 73
     0
 40
0.0
  0
LTYPE
  5
CA
330
18
100
AcDbSymbolTableRecord
100
AcDbLinetypeTableRecord
  2
CENTER2
 70
     0
  3
___ _ ___ _ ___ _ ___ _ ___ _ ___ _ ___ _ ___ _
 72
    65
 73
     4
 40
28.575
 49
19.05
 74
     0
 49
-3.174999999999999
 74
     0
 49
3.174999999999999
 74
     0
 49
-3.174999999999999
 74
     0
  0
LTYPE
  5
3C
330
18
100
AcDbSymbolTableRecord
100
AcDbLinetypeTableRecord
  2
HIDDEN
 70
     0
  3
__ __ __ __ __ __ __ __ __ __ __ __ __ __ __ __
 72
    65
 73
     2
 40
9.524999999999998
 49
6.349999999999999
 74
     0
 49
-3.174999999999999
 74
     0
  0
ENDTAB
  0
TABLE
  2
LAYER
  5
14
330
0
100
AcDbSymbolTable
 70
    10
  0
LAYER
  5
6
102
{ACAD_XDICTIONARY
360
1C2
102
}
330
14
100
AcDbSymbolTableRecord
100
AcDbLayerTableRecord
  2
0
 70
     0
 62
     7
  6
CONTINUOUS
370
    -3
390
7
  0
LAYER
  5
99
102
{ACAD_XDICTIONARY
360
1C4
102
}
330
14
100
AcDbSymbolTableRecord
100
AcDbLayerTableRecord
  2
DIMS
 70
     0
 62
     1
  6
CONTINUOUS
370
    -3
390
7
  0
LAYER
  5
3E
102
{ACAD_XDICTIONARY
360
1C6
102
}
330
14
100
AcDbSymbolTableRecord
100
AcDbLayerTableRecord
  2
ANCON-DSD
 70
     0
 62
     3
  6
CONTINUOUS
370
    -3
390
7
  0
LAYER
  5
A4
330
14
100
AcDbSymbolTableRecord
100
AcDbLayerTableRecord
  2
DEFPOINTS
 70
     0
 62
     7
  6
CONTINUOUS
290
     0
370
    -3
390
7
  0
LAYER
  5
E8
102
{ACAD_XDICTIONARY
360
1C8
102
}
330
14
100
AcDbSymbolTableRecord
100
AcDbLayerTableRecord
  2
CONCRETE
 70
     0
 62
     2
  6
CONTINUOUS
370
    -3
390
7
  0
LAYER
  5
3B
102
{ACAD_XDICTIONARY
360
1CA
102
}
330
14
100
AcDbSymbolTableRecord
100
AcDbLayerTableRecord
  2
20MM-JOINT
 70
     0
 62
     7
  6
CONTINUOUS
370
    -3
390
7
  0
LAYER
  5
2D
102
{ACAD_XDICTIONARY
360
1CC
102
}
330
14
100
AcDbSymbolTableRecord
100
AcDbLayerTableRecord
  2
SPECP
 70
     0
 62
     6
  6
CONTINUOUS
370
    -3
390
7
  0
LAYER
  5
2B
102
{ACAD_XDICTIONARY
360
1CE
102
}
330
14
100
AcDbSymbolTableRecord
100
AcDbLayerTableRecord
  2
SPECD
 70
     0
 62
     6
  6
CONTINUOUS
370
    -3
390
7
  0
LAYER
  5
AA
102
{ACAD_XDICTIONARY
360
1D0
102
}
330
14
100
AcDbSymbolTableRecord
100
AcDbLayerTableRecord
  2
20MM-DIMS
 70
     0
 62
     1
  6
CONTINUOUS
370
    -3
390
7
  0
LAYER
  5
26
102
{ACAD_XDICTIONARY
360
1D2
102
}
330
14
100
AcDbSymbolTableRecord
100
AcDbLayerTableRecord
  2
40MM-DIMS
 70
     0
 62
     1
  6
CONTINUOUS
370
    -3
390
7
  0
ENDTAB
  0
TABLE
  2
STYLE
  5
15
330
0
100
AcDbSymbolTable
 70
     2
  0
STYLE
  5
16
330
15
100
AcDbSymbolTableRecord
100
AcDbTextStyleTableRecord
  2
STANDARD
 70
     0
 40
0.0
 41
1.0
 50
0.0
 71
     0
 42
6.0
  3
txt.shx
  4

  0
STYLE
  5
27
330
15
100
AcDbSymbolTableRecord
100
AcDbTextStyleTableRecord
  2
ROMANS
 70
     0
 40
0.0
 41
1.0
 50
0.0
 71
     0
 42
5.0
  3
romans
  4

  0
ENDTAB
  0
TABLE
  2
VIEW
  5
1B
330
0
100
AcDbSymbolTable
 70
     0
  0
ENDTAB
  0
TABLE
  2
UCS
  5
1C
330
0
100
AcDbSymbolTable
 70
     0
  0
ENDTAB
  0
TABLE
  2
APPID
  5
1F
330
0
100
AcDbSymbolTable
 70
     2
  0
APPID
  5
20
330
1F
100
AcDbSymbolTableRecord
100
AcDbRegAppTableRecord
  2
ACAD
 70
     0
  0
APPID
  5
1FD
330
1F
100
AcDbSymbolTableRecord
100
AcDbRegAppTableRecord
  2
ACAD_MLEADERVER
 70
     0
  0
ENDTAB
  0
TABLE
  2
DIMSTYLE
  5
21
330
0
100
AcDbSymbolTable
 70
     1
100
AcDbDimStyleTable
 71
     0
  0
DIMSTYLE
105
29
102
{ACAD_REACTORS
330
122
330
98
330
CD
330
A9
330
143
330
134
102
}
330
21
100
AcDbSymbolTableRecord
100
AcDbDimStyleTableRecord
  2
1-2
 70
     0
 40
0.0
 41
4.0
 42
3.0
 43
10.0
 44
3.0
 46
1.25
 73
     0
 74
     0
 77
     1
 78
    12
140
3.0
141
-3.0
143
0.04
146
0.75
147
1.5
271
     2
272
     2
279
     2
284
    12
285
    12
286
    12
340
16
  0
ENDTAB
  0
TABLE
  2
BLOCK_RECORD
  5
1
330
0
100
AcDbSymbolTable
 70
    12
  0
BLOCK_RECORD
  5
2
102
{ACAD_XDICTIONARY
360
3
102
}
330
1
100
AcDbSymbolTableRecord
100
AcDbBlockTableRecord
  2
*Model_Space
340
C
  0
BLOCK_RECORD
  5
E
102
{ACAD_XDICTIONARY
360
F
102
}
330
1
100
AcDbSymbolTableRecord
100
AcDbBlockTableRecord
  2
*Paper_Space
340
13
  0
BLOCK_RECORD
  5
EA
330
1
100
AcDbSymbolTableRecord
100
AcDbBlockTableRecord
  2
*X0
340
0
102
{BLKREFS
331
11B
331
11A
331
FC
331
E9
102
}
  0
BLOCK_RECORD
  5
102
330
1
100
AcDbSymbolTableRecord
100
AcDbBlockTableRecord
  2
*X1
340
0
102
{BLKREFS
331
131
331
101
102
}
  0
BLOCK_RECORD
  5
9A
330
1
100
AcDbSymbolTableRecord
100
AcDbBlockTableRecord
  2
*D2
340
0
  0
BLOCK_RECORD
  5
135
330
1
100
AcDbSymbolTableRecord
100
AcDbBlockTableRecord
  2
*D3
340
0
  0
BLOCK_RECORD
  5
123
330
1
100
AcDbSymbolTableRecord
100
AcDbBlockTableRecord
  2
*D4
340
0
  0
BLOCK_RECORD
  5
144
330
1
100
AcDbSymbolTableRecord
100
AcDbBlockTableRecord
  2
*D5
340
0
  0
BLOCK_RECORD
  5
AB
330
1
100
AcDbSymbolTableRecord
100
AcDbBlockTableRecord
  2
*D7
340
0
  0
BLOCK_RECORD
  5
1B6
330
1
100
AcDbSymbolTableRecord
100
AcDbBlockTableRecord
  2
*D11
340
0
  0
ENDTAB
  0
ENDSEC
  0
SECTION
  2
BLOCKS
  0
BLOCK
  5
5
330
2
100
AcDbEntity
  8
0
100
AcDbBlockBegin
  2
*Model_Space
 70
     0
 10
0.0
 20
0.0
 30
0.0
  3
*Model_Space
  1

  0
ENDBLK
  5
B
330
2
100
AcDbEntity
  8
0
100
AcDbBlockEnd
  0
BLOCK
  5
11
330
E
100
AcDbEntity
 67
     1
  8
0
100
AcDbBlockBegin
  2
*Paper_Space
 70
     0
 10
0.0
 20
0.0
 30
0.0
  3
*Paper_Space
  1

  0
ENDBLK
  5
12
330
E
100
AcDbEntity
 67
     1
  8
0
100
AcDbBlockEnd
  0
BLOCK
  5
FA
330
EA
100
AcDbEntity
  8
0
100
AcDbBlockBegin
  2
*X0
 70
     1
 10
0.0
 20
0.0
 30
0.0
  3
*X0
  1

  0
LINE
  5
EB
330
EA
100
AcDbEntity
  8
0
 62
     0
100
AcDbLine
 10
16606.69257185201
 20
6222.861333480277
 30
0.0
 11
16612.6260447593
 21
6229.045287321157
 31
0.0
  0
LINE
  5
EC
330
EA
100
AcDbEntity
  8
0
 62
     0
100
AcDbLine
 10
16613.47243591316
 20
6221.793064744256
 30
0.0
 11
16612.63056471275
 21
6229.029760339063
 31
0.0
  0
LINE
  5
ED
330
EA
100
AcDbEntity
  8
0
 62
     0
100
AcDbLine
 10
16606.75459926325
 20
6222.805802461711
 30
0.0
 11
16613.48381931619
 21
6221.76213988749
 31
0.0
  0
LINE
  5
EE
330
EA
100
AcDbEntity
  8
0
 62
     0
100
AcDbLine
 10
16598.83254942096
 20
6235.781279095355
 30
0.0
 11
16603.81983582804
 21
6237.695718979455
 31
0.0
  0
LINE
  5
EF
330
EA
100
AcDbEntity
  8
0
 62
     0
100
AcDbLine
 10
16598.95877495299
 20
6235.313052809023
 30
0.0
 11
16602.26926435686
 21
6233.080099511202
 31
0.0
  0
LINE
  5
F0
330
EA
100
AcDbEntity
  8
0
 62
     0
100
AcDbLine
 10
16602.27464591158
 20
6233.087104688284
 30
0.0
 11
16603.81970102709
 21
6237.691803776179
 31
0.0
  0
LINE
  5
F1
330
EA
100
AcDbEntity
  8
0
 62
     0
100
AcDbLine
 10
16631.10490220532
 20
6252.438068061223
 30
0.0
 11
16631.10490220532
 21
6252.438068061223
 31
0.0
  0
LINE
  5
F2
330
EA
100
AcDbEntity
  8
0
 62
     0
100
AcDbLine
 10
16630.17832123014
 20
6227.071556399278
 30
0.0
 11
16630.17832123014
 21
6227.071556399278
 31
0.0
  0
LINE
  5
F3
330
EA
100
AcDbEntity
  8
0
 62
     0
100
AcDbLine
 10
16616.04230734596
 20
6217.560201586398
 30
0.0
 11
16616.04230734596
 21
6217.560201586398
 31
0.0
  0
LINE
  5
F4
330
EA
100
AcDbEntity
  8
0
 62
     0
100
AcDbLine
 10
16607.22883249624
 20
6243.814965418216
 30
0.0
 11
16607.22883249624
 21
6243.814965418216
 31
0.0
  0
LINE
  5
F5
330
EA
100
AcDbEntity
  8
0
 62
     0
100
AcDbLine
 10
16636.08820609905
 20
6247.614374031834
 30
0.0
 11
16636.08820609905
 21
6247.614374031834
 31
0.0
  0
LINE
  5
F6
330
EA
100
AcDbEntity
  8
0
 62
     0
100
AcDbLine
 10
16615.82834361918
 20
6243.860318283187
 30
0.0
 11
16615.82834361918
 21
6243.860318283187
 31
0.0
  0
LINE
  5
F7
330
EA
100
AcDbEntity
  8
0
 62
     0
100
AcDbLine
 10
16631.89495066191
 20
6233.624760744181
 30
0.0
 11
16631.89495066191
 21
6233.624760744181
 31
0.0
  0
LINE
  5
F8
330
EA
100
AcDbEntity
  8
0
 62
     0
100
AcDbLine
 10
16603.34351944143
 20
6230.047559735862
 30
0.0
 11
16603.34351944143
 21
6230.047559735862
 31
0.0
  0
LINE
  5
F9
330
EA
100
AcDbEntity
  8
0
 62
     0
100
AcDbLine
 10
16647.78227385725
 20
6237.675507045864
 30
0.0
 11
16647.78227385725
 21
6237.675507045864
 31
0.0
  0
ENDBLK
  5
FB
330
EA
100
AcDbEntity
  8
0
100
AcDbBlockEnd
  0
BLOCK
  5
118
330
102
100
AcDbEntity
  8
0
100
AcDbBlockBegin
  2
*X1
 70
     1
 10
0.0
 20
0.0
 30
0.0
  3
*X1
  1
*U
  0
LINE
  5
103
330
102
100
AcDbEntity
  8
0
 62
     0
100
AcDbLine
 10
15332.80691922617
 20
-44932.48847188444
 30
0.0
 11
15336.48045041553
 21
-44928.11052789202
 31
0.0
  0
LINE
  5
104
330
102
100
AcDbEntity
  8
0
 62
     0
100
AcDbLine
 10
15387.46231992497
 20
-44937.27019754611
 30
0.0
 11
15391.13585111433
 21
-44932.89225355368
 31
0.0
  0
LINE
  5
105
330
102
100
AcDbEntity
  8
0
 62
     0
100
AcDbLine
 10
15332.645938767
 20
-44932.43984416161
 30
0.0
 11
15337.20054092668
 21
-44932.83832021746
 31
0.0
  0
LINE
  5
106
330
102
100
AcDbEntity
  8
0
 62
     0
100
AcDbLine
 10
15387.30116468311
 20
-44937.22155683173
 30
0.0
 11
15391.85576684278
 21
-44937.62003288757
 31
0.0
  0
LINE
  5
107
330
102
100
AcDbEntity
  8
0
 62
     0
100
AcDbLine
 10
15336.84543181317
 20
-44932.96347627347
 30
0.0
 11
15335.96439839536
 21
-44928.18705197105
 31
0.0
  0
LINE
  5
108
330
102
100
AcDbEntity
  8
0
 62
     0
100
AcDbLine
 10
15391.50058332661
 20
-44937.74556155637
 30
0.0
 11
15390.6195499088
 21
-44932.96913725396
 31
0.0
  0
LINE
  5
109
330
102
100
AcDbEntity
  8
0
 62
     0
100
AcDbLine
 10
15369.24500861571
 20
-44920.00003531436
 30
0.0
 11
15371.82338227985
 21
-44917.31281587767
 31
0.0
  0
LINE
  5
10A
330
102
100
AcDbEntity
  8
0
 62
     0
100
AcDbLine
 10
15376.01476064486
 20
-44920.95467879014
 30
0.0
 11
15375.67599582237
 21
-44918.0426681436
 31
0.0
  0
LINE
  5
10B
330
102
100
AcDbEntity
  8
0
 62
     0
100
AcDbLine
 10
15369.18166048556
 20
-44919.93344034319
 30
0.0
 11
15375.95863747582
 21
-44920.98450973836
 31
0.0
  0
LINE
  5
10C
330
102
100
AcDbEntity
  8
0
 62
     0
100
AcDbLine
 10
15322.46670511942
 20
-44945.06886979667
 30
0.0
 11
15327.80211725685
 21
-44943.02079696502
 31
0.0
  0
LINE
  5
10D
330
102
100
AcDbEntity
  8
0
 62
     0
100
AcDbLine
 10
15322.32202676532
 20
-44944.9451100819
 30
0.0
 11
15325.89109970756
 21
-44947.35248017868
 31
0.0
  0
LINE
  5
10E
330
102
100
AcDbEntity
  8
0
 62
     0
100
AcDbLine
 10
15326.09630612562
 20
-44947.40237347595
 30
0.0
 11
15327.61322237235
 21
-44942.88153613647
 31
0.0
  0
LINE
  5
10F
330
102
100
AcDbEntity
  8
0
 62
     0
100
AcDbLine
 10
15344.43613389468
 20
-44933.49850737506
 30
0.0
 11
15344.43613389468
 21
-44933.49850737506
 31
0.0
  0
LINE
  5
110
330
102
100
AcDbEntity
  8
0
 62
     0
100
AcDbLine
 10
15383.56001292075
 20
-44928.13322019708
 30
0.0
 11
15383.56001292075
 21
-44928.13322019708
 31
0.0
  0
LINE
  5
111
330
102
100
AcDbEntity
  8
0
 62
     0
100
AcDbLine
 10
15324.0889388341
 20
-44944.57712941013
 30
0.0
 11
15324.0889388341
 21
-44944.57712941013
 31
0.0
  0
LINE
  5
112
330
102
100
AcDbEntity
  8
0
 62
     0
100
AcDbLine
 10
15352.94831243691
 20
-44940.77772079651
 30
0.0
 11
15352.94831243691
 21
-44940.77772079651
 31
0.0
  0
LINE
  5
113
330
102
100
AcDbEntity
  8
0
 62
     0
100
AcDbLine
 10
15370.15185636104
 20
-44934.69977449441
 30
0.0
 11
15370.15185636104
 21
-44934.69977449441
 31
0.0
  0
LINE
  5
114
330
102
100
AcDbEntity
  8
0
 62
     0
100
AcDbLine
 10
15329.47467781097
 20
-44932.98115129659
 30
0.0
 11
15329.47467781097
 21
-44932.98115129659
 31
0.0
  0
LINE
  5
115
330
102
100
AcDbEntity
  8
0
 62
     0
100
AcDbLine
 10
15345.54128485371
 20
-44943.21670883561
 30
0.0
 11
15345.54128485371
 21
-44943.21670883561
 31
0.0
  0
LINE
  5
116
330
102
100
AcDbEntity
  8
0
 62
     0
100
AcDbLine
 10
15392.02993037373
 20
-44924.78498136955
 30
0.0
 11
15392.02993037373
 21
-44924.78498136955
 31
0.0
  0
LINE
  5
117
330
102
100
AcDbEntity
  8
0
 62
     0
100
AcDbLine
 10
15347.59117595792
 20
-44932.41292867955
 30
0.0
 11
15347.59117595792
 21
-44932.41292867955
 31
0.0
  0
ENDBLK
  5
119
330
102
100
AcDbEntity
  8
0
100
AcDbBlockEnd
  0
BLOCK
  5
A7
330
9A
100
AcDbEntity
  8
0
100
AcDbBlockBegin
  2
*D2
 70
     1
 10
0.0
 20
0.0
 30
0.0
  3
*D2
  1

  0
LINE
  5
9B
330
9A
100
AcDbEntity
  8
0
  6
ByBlock
 62
     0
100
AcDbLine
 10
0.0000000000000027
 20
-41.0
 30
0.0
 11
0.0000000000000027
 21
-51.71360481256672
 31
0.0
  0
LINE
  5
9C
330
9A
100
AcDbEntity
  8
0
  6
ByBlock
 62
     0
100
AcDbLine
 10
2.000000000000002
 20
-41.0
 30
0.0
 11
2.000000000000002
 21
-51.71360481256672
 31
0.0
  0
LINE
  5
9D
330
9A
100
AcDbEntity
  8
0
  6
ByBlock
 62
     0
100
AcDbLine
 10
-3.999999999999997
 20
-48.71360481256672
 30
0.0
 11
-7.999999999999997
 21
-48.71360481256672
 31
0.0
  0
LINE
  5
9E
330
9A
100
AcDbEntity
  8
0
  6
ByBlock
 62
     0
100
AcDbLine
 10
6.000000000000002
 20
-48.71360481256672
 30
0.0
 11
10.0
 21
-48.71360481256672
 31
0.0
  0
LINE
  5
9F
330
9A
100
AcDbEntity
  8
0
  6
ByBlock
 62
     0
100
AcDbLine
 10
10.0
 20
-48.71360481256672
 30
0.0
 11
13.5
 21
-48.71360481256672
 31
0.0
  0
SOLID
  5
A0
330
9A
100
AcDbEntity
  8
0
  6
ByBlock
 62
     0
100
AcDbTrace
 10
-3.999999999999997
 20
-48.04693814590006
 30
0.0
 11
-3.999999999999997
 21
-49.38027147923339
 31
0.0
 12
0.0000000000000027
 22
-48.71360481256672
 32
0.0
 13
0.0000000000000027
 23
-48.71360481256672
 33
0.0
  0
SOLID
  5
A1
330
9A
100
AcDbEntity
  8
0
  6
ByBlock
 62
     0
100
AcDbTrace
 10
6.000000000000002
 20
-48.04693814590006
 30
0.0
 11
6.000000000000002
 21
-49.38027147923339
 31
0.0
 12
2.000000000000002
 22
-48.71360481256672
 32
0.0
 13
2.000000000000002
 23
-48.71360481256672
 33
0.0
  0
TEXT
  5
A2
330
9A
100
AcDbEntity
  8
0
  6
ByBlock
 62
     0
100
AcDbText
 10
11.07142857142857
 20
-47.21360481256672
 30
0.0
 40
3.0
  1
2
  7
ROMANS
 72
     1
 11
12.5
 21
-45.71360481256672
 31
0.0
100
AcDbText
 73
     2
  0
POINT
  5
A3
330
9A
100
AcDbEntity
  8
DEFPOINTS
  6
ByBlock
 62
     0
100
AcDbPoint
 10
0.0000000000000027
 20
-38.0
 30
0.0
  0
POINT
  5
A5
330
9A
100
AcDbEntity
  8
DEFPOINTS
  6
ByBlock
 62
     0
100
AcDbPoint
 10
2.000000000000002
 20
-38.0
 30
0.0
  0
POINT
  5
A6
330
9A
100
AcDbEntity
  8
DEFPOINTS
  6
ByBlock
 62
     0
100
AcDbPoint
 10
2.000000000000002
 20
-48.71360481256672
 30
0.0
  0
ENDBLK
  5
A8
330
9A
100
AcDbEntity
  8
0
100
AcDbBlockEnd
  0
BLOCK
  5
13F
330
135
100
AcDbEntity
  8
0
100
AcDbBlockBegin
  2
*D3
 70
     1
 10
0.0
 20
0.0
 30
0.0
  3
*D3
  1

  0
LINE
  5
136
330
135
100
AcDbEntity
  8
0
  6
ByBlock
 62
     0
100
AcDbLine
 10
0.0000000000000027
 20
-41.0
 30
0.0
 11
0.0000000000000027
 21
-62.84107725227959
 31
0.0
  0
LINE
  5
137
330
135
100
AcDbEntity
  8
0
  6
ByBlock
 62
     0
100
AcDbLine
 10
129.9962777280847
 20
-15.99999999999983
 30
0.0
 11
129.9962777280847
 21
-62.84107725227959
 31
0.0
  0
LINE
  5
138
330
135
100
AcDbEntity
  8
0
  6
ByBlock
 62
     0
100
AcDbLine
 10
4.000000000000002
 20
-59.84107725227959
 30
0.0
 11
125.9962777280847
 21
-59.84107725227959
 31
0.0
  0
SOLID
  5
139
330
135
100
AcDbEntity
  8
0
  6
ByBlock
 62
     0
100
AcDbTrace
 10
4.000000000000002
 20
-59.17441058561292
 30
0.0
 11
4.000000000000002
 21
-60.50774391894625
 31
0.0
 12
0.0000000000000027
 22
-59.84107725227959
 32
0.0
 13
0.0000000000000027
 23
-59.84107725227959
 33
0.0
  0
SOLID
  5
13A
330
135
100
AcDbEntity
  8
0
  6
ByBlock
 62
     0
100
AcDbTrace
 10
125.9962777280847
 20
-59.17441058561292
 30
0.0
 11
125.9962777280847
 21
-60.50774391894625
 31
0.0
 12
129.9962777280847
 22
-59.84107725227959
 32
0.0
 13
129.9962777280847
 23
-59.84107725227959
 33
0.0
  0
TEXT
  5
13B
330
135
100
AcDbEntity
  8
0
  6
ByBlock
 62
     0
100
AcDbText
 10
60.49813886404236
 20
-58.34107725227958
 30
0.0
 40
3.0
  1
130
  7
ROMANS
 72
     1
 11
64.99813886404236
 21
-56.84107725227959
 31
0.0
100
AcDbText
 73
     2
  0
POINT
  5
13C
330
135
100
AcDbEntity
  8
DEFPOINTS
  6
ByBlock
 62
     0
100
AcDbPoint
 10
0.0000000000000027
 20
-38.0
 30
0.0
  0
POINT
  5
13D
330
135
100
AcDbEntity
  8
DEFPOINTS
  6
ByBlock
 62
     0
100
AcDbPoint
 10
129.9962777280847
 20
-12.99999999999983
 30
0.0
  0
POINT
  5
13E
330
135
100
AcDbEntity
  8
DEFPOINTS
  6
ByBlock
 62
     0
100
AcDbPoint
 10
129.9962777280847
 20
-59.84107725227959
 30
0.0
  0
ENDBLK
  5
140
330
135
100
AcDbEntity
  8
0
100
AcDbBlockEnd
  0
BLOCK
  5
12D
330
123
100
AcDbEntity
  8
0
100
AcDbBlockBegin
  2
*D4
 70
     1
 10
0.0
 20
0.0
 30
0.0
  3
*D4
  1

  0
LINE
  5
124
330
123
100
AcDbEntity
  8
0
  6
ByBlock
 62
     0
100
AcDbLine
 10
0.0000000000000027
 20
-41.0
 30
0.0
 11
0.0000000000000027
 21
-87.35748026285268
 31
0.0
  0
LINE
  5
125
330
123
100
AcDbEntity
  8
0
  6
ByBlock
 62
     0
100
AcDbLine
 10
175.0
 20
-19.79999999999998
 30
0.0
 11
175.0
 21
-87.35748026285268
 31
0.0
  0
LINE
  5
126
330
123
100
AcDbEntity
  8
0
  6
ByBlock
 62
     0
100
AcDbLine
 10
4.000000000000002
 20
-84.35748026285267
 30
0.0
 11
171.0
 21
-84.35748026285267
 31
0.0
  0
SOLID
  5
127
330
123
100
AcDbEntity
  8
0
  6
ByBlock
 62
     0
100
AcDbTrace
 10
4.000000000000002
 20
-83.69081359618601
 30
0.0
 11
4.000000000000002
 21
-85.02414692951935
 31
0.0
 12
0.0000000000000027
 22
-84.35748026285267
 32
0.0
 13
0.0000000000000027
 23
-84.35748026285267
 33
0.0
  0
SOLID
  5
128
330
123
100
AcDbEntity
  8
0
  6
ByBlock
 62
     0
100
AcDbTrace
 10
171.0
 20
-83.69081359618601
 30
0.0
 11
171.0
 21
-85.02414692951935
 31
0.0
 12
175.0
 22
-84.35748026285267
 32
0.0
 13
175.0
 23
-84.35748026285267
 33
0.0
  0
TEXT
  5
129
330
123
100
AcDbEntity
  8
0
  6
ByBlock
 62
     0
100
AcDbText
 10
83.00000000000002
 20
-82.85748026285267
 30
0.0
 40
3.0
  1
175
  7
ROMANS
 72
     1
 11
87.50000000000001
 21
-81.35748026285268
 31
0.0
100
AcDbText
 73
     2
  0
POINT
  5
12A
330
123
100
AcDbEntity
  8
DEFPOINTS
  6
ByBlock
 62
     0
100
AcDbPoint
 10
0.0000000000000027
 20
-38.0
 30
0.0
  0
POINT
  5
12B
330
123
100
AcDbEntity
  8
DEFPOINTS
  6
ByBlock
 62
     0
100
AcDbPoint
 10
175.0
 20
-16.79999999999999
 30
0.0
  0
POINT
  5
12C
330
123
100
AcDbEntity
  8
DEFPOINTS
  6
ByBlock
 62
     0
100
AcDbPoint
 10
175.0
 20
-84.35748026285267
 30
0.0
  0
ENDBLK
  5
12E
330
123
100
AcDbEntity
  8
0
100
AcDbBlockEnd
  0
BLOCK
  5
14E
330
144
100
AcDbEntity
  8
0
100
AcDbBlockBegin
  2
*D5
 70
     1
 10
0.0
 20
0.0
 30
0.0
  3
*D5
  1

  0
LINE
  5
145
330
144
100
AcDbEntity
  8
0
  6
ByBlock
 62
     0
100
AcDbLine
 10
0.0000000000000027
 20
-41.0
 30
0.0
 11
0.0000000000000027
 21
-75.35748026285268
 31
0.0
  0
LINE
  5
146
330
144
100
AcDbEntity
  8
0
  6
ByBlock
 62
     0
100
AcDbLine
 10
160.0
 20
-19.79999999999998
 30
0.0
 11
160.0
 21
-75.35748026285268
 31
0.0
  0
LINE
  5
147
330
144
100
AcDbEntity
  8
0
  6
ByBlock
 62
     0
100
AcDbLine
 10
4.000000000000002
 20
-72.35748026285268
 30
0.0
 11
156.0
 21
-72.35748026285268
 31
0.0
  0
SOLID
  5
148
330
144
100
AcDbEntity
  8
0
  6
ByBlock
 62
     0
100
AcDbTrace
 10
4.000000000000002
 20
-71.690813596186
 30
0.0
 11
4.000000000000002
 21
-73.02414692951934
 31
0.0
 12
0.0000000000000027
 22
-72.35748026285268
 32
0.0
 13
0.0000000000000027
 23
-72.35748026285268
 33
0.0
  0
SOLID
  5
149
330
144
100
AcDbEntity
  8
0
  6
ByBlock
 62
     0
100
AcDbTrace
 10
156.0
 20
-71.690813596186
 30
0.0
 11
156.0
 21
-73.02414692951934
 31
0.0
 12
160.0
 22
-72.35748026285268
 32
0.0
 13
160.0
 23
-72.35748026285268
 33
0.0
  0
TEXT
  5
14A
330
144
100
AcDbEntity
  8
0
  6
ByBlock
 62
     0
100
AcDbText
 10
75.50000000000001
 20
-70.85748026285267
 30
0.0
 40
3.0
  1
160
  7
ROMANS
 72
     1
 11
80.00000000000001
 21
-69.35748026285267
 31
0.0
100
AcDbText
 73
     2
  0
POINT
  5
14B
330
144
100
AcDbEntity
  8
DEFPOINTS
  6
ByBlock
 62
     0
100
AcDbPoint
 10
0.0000000000000027
 20
-38.0
 30
0.0
  0
POINT
  5
14C
330
144
100
AcDbEntity
  8
DEFPOINTS
  6
ByBlock
 62
     0
100
AcDbPoint
 10
160.0
 20
-16.79999999999999
 30
0.0
  0
POINT
  5
14D
330
144
100
AcDbEntity
  8
DEFPOINTS
  6
ByBlock
 62
     0
100
AcDbPoint
 10
160.0
 20
-72.35748026285268
 30
0.0
  0
ENDBLK
  5
14F
330
144
100
AcDbEntity
  8
0
100
AcDbBlockEnd
  0
BLOCK
  5
B5
330
AB
100
AcDbEntity
  8
0
100
AcDbBlockBegin
  2
*D7
 70
     1
 10
0.0
 20
0.0
 30
0.0
  3
*D7
  1

  0
LINE
  5
AC
330
AB
100
AcDbEntity
  8
0
  6
ByBlock
 62
     0
100
AcDbLine
 10
-19.99999999999997
 20
-17.99999999999983
 30
0.0
 11
-19.99999999999997
 21
-87.35748026285268
 31
0.0
  0
LINE
  5
AD
330
AB
100
AcDbEntity
  8
0
  6
ByBlock
 62
     0
100
AcDbLine
 10
0.0000000000000359
 20
-41.0
 30
0.0
 11
0.0000000000000359
 21
-87.35748026285268
 31
0.0
  0
LINE
  5
AE
330
AB
100
AcDbEntity
  8
0
  6
ByBlock
 62
     0
100
AcDbLine
 10
-15.99999999999997
 20
-84.35748026285267
 30
0.0
 11
-3.999999999999964
 21
-84.35748026285267
 31
0.0
  0
SOLID
  5
AF
330
AB
100
AcDbEntity
  8
0
  6
ByBlock
 62
     0
100
AcDbTrace
 10
-15.99999999999997
 20
-83.69081359618601
 30
0.0
 11
-15.99999999999997
 21
-85.02414692951935
 31
0.0
 12
-19.99999999999997
 22
-84.35748026285267
 32
0.0
 13
-19.99999999999997
 23
-84.35748026285267
 33
0.0
  0
SOLID
  5
B0
330
AB
100
AcDbEntity
  8
0
  6
ByBlock
 62
     0
100
AcDbTrace
 10
-3.999999999999964
 20
-83.69081359618601
 30
0.0
 11
-3.999999999999964
 21
-85.02414692951935
 31
0.0
 12
0.0000000000000359
 22
-84.35748026285267
 32
0.0
 13
0.0000000000000359
 23
-84.35748026285267
 33
0.0
  0
TEXT
  5
B1
330
AB
100
AcDbEntity
  8
0
  6
ByBlock
 62
     0
100
AcDbText
 10
-12.85714285714282
 20
-82.85748026285267
 30
0.0
 40
3.0
  1
20
  7
ROMANS
 72
     1
 11
-9.999999999999966
 21
-81.35748026285268
 31
0.0
100
AcDbText
 73
     2
  0
POINT
  5
B2
330
AB
100
AcDbEntity
  8
DEFPOINTS
  6
ByBlock
 62
     0
100
AcDbPoint
 10
-19.99999999999997
 20
-14.99999999999983
 30
0.0
  0
POINT
  5
B3
330
AB
100
AcDbEntity
  8
DEFPOINTS
  6
ByBlock
 62
     0
100
AcDbPoint
 10
0.0000000000000359
 20
-38.00000000000001
 30
0.0
  0
POINT
  5
B4
330
AB
100
AcDbEntity
  8
DEFPOINTS
  6
ByBlock
 62
     0
100
AcDbPoint
 10
0.0000000000000359
 20
-84.35748026285267
 30
0.0
  0
ENDBLK
  5
B6
330
AB
100
AcDbEntity
  8
0
100
AcDbBlockEnd
  0
BLOCK
  5
1B7
330
1B6
100
AcDbEntity
  8
0
100
AcDbBlockBegin
  2
*D11
 70
     1
 10
0.0
 20
0.0
 30
0.0
  3
*D11
  1

  0
LINE
  5
1B9
330
1B6
100
AcDbEntity
  8
20MM-DIMS
 62
     0
370
    -2
100
AcDbLine
 10
-220.0
 20
-15.99999999999977
 30
0.0
 11
-220.0
 21
-87.35748026285268
 31
0.0
  0
LINE
  5
1BA
330
1B6
100
AcDbEntity
  8
20MM-DIMS
 62
     0
370
    -2
100
AcDbLine
 10
-19.99999999999997
 20
-17.99999999999983
 30
0.0
 11
-19.99999999999997
 21
-87.35748026285268
 31
0.0
  0
LINE
  5
1BB
330
1B6
100
AcDbEntity
  8
20MM-DIMS
 62
     0
370
    -2
100
AcDbLine
 10
-216.0
 20
-84.35748026285267
 30
0.0
 11
-23.99999999999997
 21
-84.35748026285267
 31
0.0
  0
SOLID
  5
1BC
330
1B6
100
AcDbEntity
  8
20MM-DIMS
 62
     0
100
AcDbTrace
 10
-216.0
 20
-83.69081359618601
 30
0.0
 11
-216.0
 21
-85.02414692951935
 31
0.0
 12
-220.0
 22
-84.35748026285267
 32
0.0
 13
-220.0
 23
-84.35748026285267
 33
0.0
  0
SOLID
  5
1BD
330
1B6
100
AcDbEntity
  8
20MM-DIMS
 62
     0
100
AcDbTrace
 10
-23.99999999999997
 20
-83.69081359618601
 30
0.0
 11
-23.99999999999997
 21
-85.02414692951935
 31
0.0
 12
-19.99999999999997
 22
-84.35748026285267
 32
0.0
 13
-19.99999999999997
 23
-84.35748026285267
 33
0.0
  0
MTEXT
  5
1BE
330
1B6
100
AcDbEntity
  8
20MM-DIMS
 62
     0
100
AcDbMText
 10
-120.0
 20
-81.35748026285268
 30
0.0
 40
3.0
 41
0.0
 71
     5
 72
     1
  1
\A1;200
 73
     1
 44
1.0
  0
POINT
  5
1BF
330
1B6
100
AcDbEntity
  8
DEFPOINTS
 62
     0
100
AcDbPoint
 10
-220.0
 20
-12.99999999999977
 30
0.0
  0
POINT
  5
1C0
330
1B6
100
AcDbEntity
  8
DEFPOINTS
 62
     0
100
AcDbPoint
 10
-19.99999999999997
 20
-14.99999999999983
 30
0.0
  0
POINT
  5
1C1
330
1B6
100
AcDbEntity
  8
DEFPOINTS
 62
     0
100
AcDbPoint
 10
-19.99999999999997
 20
-84.35748026285267
 30
0.0
  0
ENDBLK
  5
1B8
330
1B6
100
AcDbEntity
  8
0
100
AcDbBlockEnd
  0
ENDSEC
  0
SECTION
  2
ENTITIES
  0
LINE
  5
2A
330
2
100
AcDbEntity
  8
SPECD
 62
     6
100
AcDbLine
 10
339.4838796203883
 20
193.4013187375109
 30
0.0
 11
339.4838796203883
 21
140.3676261519606
 31
0.0
  0
LINE
  5
2C
330
2
100
AcDbEntity
  8
SPECP
 62
     6
100
AcDbLine
 10
136.9969295137479
 20
222.7678324046048
 30
0.0
 11
204.5867804365098
 21
222.7678324046048
 31
0.0
  0
LINE
  5
2E
330
2
100
AcDbEntity
  8
SPECD
 62
     6
100
AcDbLine
 10
136.9969295137479
 20
193.4013187375109
 30
0.0
 11
136.9969295137479
 21
140.3676261519606
 31
0.0
  0
LINE
  5
2F
330
2
100
AcDbEntity
  8
SPECP
 62
     6
100
AcDbLine
 10
136.9969295137479
 20
210.8498571126035
 30
0.0
 11
204.5867804365099
 21
210.8498571126036
 31
0.0
  0
TEXT
  5
30
330
2
100
AcDbEntity
  8
SPECD
 62
     6
100
AcDbText
 10
142.2663909988825
 20
144.0706765833892
 30
0.0
 40
5.0
  1
LOAD OF ??? kN
  7
ROMANS
 72
     4
 11
174.8854386179302
 21
146.5706765833892
 31
0.0
100
AcDbText
  0
TEXT
  5
31
330
2
100
AcDbEntity
  8
SPECP
 62
     6
100
AcDbText
 10
141.7291344252352
 20
214.1307222887613
 30
0.0
 40
5.0
  1
STAIFIX ESD ??
  7
ROMANS
 72
     4
 11
171.0148487109495
 21
216.6307222887613
 31
0.0
100
AcDbText
  0
LINE
  5
32
330
2
100
AcDbEntity
  8
SPECP
 62
     6
100
AcDbLine
 10
136.9969295137479
 20
222.7678324046048
 30
0.0
 11
136.9969295137479
 21
210.8498571126035
 31
0.0
  0
LINE
  5
33
330
2
100
AcDbEntity
  8
SPECP
 62
     6
100
AcDbLine
 10
204.5867804365098
 20
222.7678324046048
 30
0.0
 11
204.5867804365099
 21
210.8498571126035
 31
0.0
  0
TEXT
  5
34
330
2
100
AcDbEntity
  8
SPECD
 62
     6
100
AcDbText
 10
141.2886627185875
 20
184.1605191977409
 30
0.0
 40
5.0
  1
TWO PART STAINLESS STEEL SHEAR CONNECTOR
  7
ROMANS
 72
     4
 11
233.9077103376353
 21
186.6605191977409
 31
0.0
100
AcDbText
  0
TEXT
  5
35
330
2
100
AcDbEntity
  8
SPECD
 62
     6
100
AcDbText
 10
140.5674783125317
 20
174.0558068719503
 30
0.0
 40
5.0
  1
COMPRISING SLEEVE AND DOWEL COMPONENT
  7
ROMANS
 72
     4
 11
228.5436687887223
 21
176.5558068719503
 31
0.0
100
AcDbText
  0
TEXT
  5
36
330
2
100
AcDbEntity
  8
SPECD
 62
     6
100
AcDbText
 10
140.6261750725893
 20
164.1546591622805
 30
0.0
 40
5.0
  1
SUITABLE FOR A DESIGN JOINT WIDTH OF ?? MM
  7
ROMANS
 72
     4
 11
235.5071274535418
 21
166.6546591622805
 31
0.0
100
AcDbText
  0
TEXT
  5
37
330
2
100
AcDbEntity
  8
SPECD
 62
     6
100
AcDbText
 10
141.0806102425394
 20
154.1056017483515
 30
0.0
 40
5.0
  1
AND CAPABLE OF TRANSFERRING A SERVICEABILITY
  7
ROMANS
 72
     4
 11
238.4615626234918
 21
156.6056017483515
 31
0.0
100
AcDbText
  0
LINE
  5
38
330
2
100
AcDbEntity
  8
SPECD
 62
     6
100
AcDbLine
 10
136.9969295137479
 20
140.3676261519606
 30
0.0
 11
339.4838796203883
 21
140.3676261519606
 31
0.0
  0
LINE
  5
39
330
2
100
AcDbEntity
  8
SPECD
 62
     6
100
AcDbLine
 10
136.9969295137479
 20
193.4013187375109
 30
0.0
 11
339.4838796203883
 21
193.4013187375109
 31
0.0
  0
LINE
  5
3A
330
2
100
AcDbEntity
  8
20MM-JOINT
  6
HIDDEN
 62
     3
100
AcDbLine
 10
129.9962777280847
 20
7.000000000000113
 30
0.0
 11
129.9962777280847
 21
-6.999999999999886
 31
0.0
  0
LINE
  5
3D
330
2
100
AcDbEntity
  8
ANCON-DSD
  6
Continuous
 62
     3
100
AcDbLine
 10
175.0
 20
-20.0
 30
0.0
 11
175.0
 21
20.00000000000001
 31
0.0
  0
LINE
  5
3F
330
2
100
AcDbEntity
  8
20MM-JOINT
  6
HIDDEN
 62
     3
100
AcDbLine
 10
129.9962777280847
 20
13.00000000000017
 30
0.0
 11
129.9962777280847
 21
-12.99999999999983
 31
0.0
  0
LINE
  5
40
330
2
100
AcDbEntity
  8
ANCON-DSD
  6
HIDDEN
 62
     3
100
AcDbLine
 10
160.0
 20
-16.80000000000001
 30
0.0
 11
159.9999999999999
 21
16.79999999999997
 31
0.0
  0
LINE
  5
41
330
2
100
AcDbEntity
  8
ANCON-DSD
  6
Continuous
 62
     3
100
AcDbLine
 10
180.0
 20
-19.99999999999998
 30
0.0
 11
180.0
 21
20.00000000000001
 31
0.0
  0
LINE
  5
42
330
2
100
AcDbEntity
  8
20MM-JOINT
  6
HIDDEN
 62
     3
100
AcDbLine
 10
127.9962777280847
 20
15.00000000000017
 30
0.0
 11
127.9962777280847
 21
-14.99999999999983
 31
0.0
  0
LINE
  5
43
330
2
100
AcDbEntity
  8
20MM-JOINT
  6
HIDDEN
 62
     3
100
AcDbLine
 10
127.9962777280847
 20
-14.99999999999983
 30
0.0
 11
129.9962777280847
 21
-12.99999999999983
 31
0.0
  0
LINE
  5
44
330
2
100
AcDbEntity
  8
20MM-JOINT
  6
HIDDEN
 62
     3
100
AcDbLine
 10
127.9962777280847
 20
15.00000000000017
 30
0.0
 11
129.9962777280847
 21
13.00000000000017
 31
0.0
  0
LINE
  5
45
330
2
100
AcDbEntity
  8
ANCON-DSD
 62
     1
100
AcDbLine
 10
63.00116644601776
 20
90.03769287997124
 30
0.0
 11
63.18927450954955
 21
88.72199709316374
 31
0.0
  0
LINE
  5
46
330
2
100
AcDbEntity
  8
ANCON-DSD
 62
     1
100
AcDbLine
 10
63.18927450954955
 20
88.72199709316374
 30
0.0
 11
61.87251354631139
 21
88.53403996445299
 31
0.0
  0
LINE
  5
47
330
2
100
AcDbEntity
  8
ANCON-DSD
 62
     1
100
AcDbLine
 10
61.3081870964582
 20
89.28586573651747
 30
0.0
 11
60.93197096939462
 21
90.60156152332497
 31
0.0
  0
LINE
  5
48
330
2
100
AcDbEntity
  8
ANCON-DSD
 62
     1
100
AcDbLine
 10
48.51679870791675
 20
86.27856157423922
 30
0.0
 11
49.26923272877437
 21
86.27856157423922
 31
0.0
  0
LINE
  5
49
330
2
100
AcDbEntity
  8
ANCON-DSD
 62
     1
100
AcDbLine
 10
60.74386064660502
 20
90.78951865203574
 30
0.0
 11
63.00116644601776
 21
90.03769287997124
 31
0.0
  0
LINE
  5
4A
330
2
100
AcDbEntity
  8
ANCON-DSD
 62
     1
100
AcDbLine
 10
61.87251354631139
 20
88.53403996445299
 30
0.0
 11
61.3081870964582
 21
89.28586573651747
 31
0.0
  0
LINE
  5
4B
330
2
100
AcDbEntity
  8
ANCON-DSD
 62
     1
100
AcDbLine
 10
38.54704137211921
 20
104.1344336488214
 30
0.0
 11
40.24001846242096
 21
105.8260423216611
 31
0.0
  0
LINE
  5
4C
330
2
100
AcDbEntity
  8
ANCON-DSD
 62
     1
100
AcDbLine
 10
40.24001846242096
 20
105.8260423216611
 30
0.0
 11
40.42812652595276
 21
105.4501294356289
 31
0.0
  0
LINE
  5
4D
330
2
100
AcDbEntity
  8
ANCON-DSD
 62
     1
100
AcDbLine
 10
40.42812652595276
 20
105.4501294356289
 30
0.0
 11
40.42812652595276
 21
103.7585207627891
 31
0.0
  0
LINE
  5
4E
330
2
100
AcDbEntity
  8
ANCON-DSD
 62
     1
100
AcDbLine
 10
40.42812652595276
 20
103.7585207627891
 30
0.0
 11
39.1113655627146
 21
102.8187378620139
 31
0.0
  0
LINE
  5
4F
330
2
100
AcDbEntity
  8
ANCON-DSD
 62
     1
100
AcDbLine
 10
37.41838847241285
 20
103.1946507480461
 30
0.0
 11
38.17082298579782
 21
103.3826078767569
 31
0.0
  0
LINE
  5
50
330
2
100
AcDbEntity
  8
ANCON-DSD
 62
     1
100
AcDbLine
 10
38.17082298579782
 20
103.3826078767569
 30
0.0
 11
38.54704137211921
 21
104.1344336488214
 31
0.0
  0
LINE
  5
51
330
2
100
AcDbEntity
  8
ANCON-DSD
 62
     1
100
AcDbLine
 10
28.95349850238847
 20
106.2019552076933
 30
0.0
 11
30.45836752915843
 21
104.3223894061429
 31
0.0
  0
LINE
  5
52
330
2
100
AcDbEntity
  8
ANCON-DSD
 62
     1
100
AcDbLine
 10
30.45836752915843
 20
104.3223894061429
 30
0.0
 11
29.89404333856304
 21
103.7585207627891
 31
0.0
  0
LINE
  5
53
330
2
100
AcDbEntity
  8
ANCON-DSD
 62
     1
100
AcDbLine
 10
29.89404333856304
 20
103.7585207627891
 30
0.0
 11
28.01295592547169
 21
103.7585207627891
 31
0.0
  0
LINE
  5
54
330
2
100
AcDbEntity
  8
ANCON-DSD
 62
     1
100
AcDbLine
 10
28.01295592547169
 20
103.7585207627891
 30
0.0
 11
28.01295592547169
 21
104.3223894061429
 31
0.0
  0
LINE
  5
55
330
2
100
AcDbEntity
  8
ANCON-DSD
 62
     1
100
AcDbLine
 10
28.01295592547169
 20
104.3223894061429
 30
0.0
 11
28.95349850238847
 21
106.2019552076933
 31
0.0
  0
CIRCLE
  5
56
330
2
100
AcDbEntity
  8
ANCON-DSD
 62
     1
100
AcDbCircle
 10
46.071386505969
 20
98.11982335813768
 30
0.0
 40
0.7977544665882306
  0
LINE
  5
57
330
2
100
AcDbEntity
  8
ANCON-DSD
 62
     1
100
AcDbLine
 10
25.26421843733985
 20
86.79309254020413
 30
0.0
 11
25.75330020626156
 21
86.18223336879488
 31
0.0
  0
LINE
  5
58
330
2
100
AcDbEntity
  8
ANCON-DSD
 62
     1
100
AcDbLine
 10
39.1113655627146
 20
102.8187378620139
 30
0.0
 11
37.79460685873423
 21
101.8789549612386
 31
0.0
  0
LINE
  5
59
330
2
100
AcDbEntity
  8
ANCON-DSD
 62
     1
100
AcDbLine
 10
37.79460685873423
 20
101.8789549612386
 30
0.0
 11
37.41838847241285
 21
103.1946507480461
 31
0.0
  0
TEXT
  5
5A
330
2
100
AcDbEntity
  8
20MM-JOINT
 62
     6
100
AcDbText
 10
-84.49203817686074
 20
202.8776327673575
 30
0.0
 40
5.0
  1
LOAD ( kN )
  7
ROMANS
 72
     4
 11
-59.73013341495598
 21
205.0204899102146
 31
0.0
100
AcDbText
  0
TEXT
  5
5B
330
2
100
AcDbEntity
  8
20MM-JOINT
 62
     6
100
AcDbText
 10
-68.18251436733693
 20
180.1965158800982
 30
0.0
 40
5.0
  1
20.4
  7
ROMANS
 72
     4
 11
-59.73013341495598
 21
182.6965158800982
 31
0.0
100
AcDbText
  0
TEXT
  5
5C
330
2
100
AcDbEntity
  8
20MM-JOINT
 62
     6
100
AcDbText
 10
-133.3955823891323
 20
202.8805595731859
 30
0.0
 40
5.0
  1
WIDTH
  7
ROMANS
 72
     4
 11
-122.8003442938942
 21
205.3805595731859
 31
0.0
100
AcDbText
  0
TEXT
  5
5D
330
2
100
AcDbEntity
  8
20MM-JOINT
 62
     6
100
AcDbText
 10
-132.5872762720988
 20
180.1965158800982
 30
0.0
 40
5.0
  1
20 MM
  7
ROMANS
 72
     4
 11
-119.730133414956
 21
182.6965158800982
 31
0.0
100
AcDbText
  0
LINE
  5
5E
330
2
100
AcDbEntity
  8
20MM-JOINT
 62
     1
100
AcDbLine
 10
-66.19291841038394
 20
98.86559591415812
 30
0.0
 11
-66.19291841038394
 21
97.1739872413184
 31
0.0
  0
LINE
  5
5F
330
2
100
AcDbEntity
  8
20MM-JOINT
 62
     1
100
AcDbLine
 10
-66.38102647391573
 20
99.24150880019039
 30
0.0
 11
-66.19291841038394
 21
98.86559591415812
 31
0.0
  0
LINE
  5
60
330
2
100
AcDbEntity
  8
20MM-JOINT
 62
     1
100
AcDbLine
 10
-68.45022195053887
 20
96.79807435528619
 30
0.0
 11
-68.07400356421751
 21
97.54990012735062
 31
0.0
  0
LINE
  5
61
330
2
100
AcDbEntity
  8
20MM-JOINT
 62
     1
100
AcDbLine
 10
-69.20265646392387
 20
96.61011722657542
 30
0.0
 11
-68.45022195053887
 21
96.79807435528619
 31
0.0
  0
LINE
  5
62
330
2
100
AcDbEntity
  8
20MM-JOINT
 62
     1
100
AcDbLine
 10
-67.50967937362209
 20
96.23420434054317
 30
0.0
 11
-68.82643807760247
 21
95.29442143976792
 31
0.0
  0
LINE
  5
63
330
2
100
AcDbEntity
  8
20MM-JOINT
 62
     1
100
AcDbLine
 10
-68.82643807760247
 20
95.29442143976792
 30
0.0
 11
-69.20265646392387
 21
96.61011722657542
 31
0.0
  0
LINE
  5
64
330
2
100
AcDbEntity
  8
20MM-JOINT
 62
     1
100
AcDbLine
 10
-68.07400356421751
 20
97.54990012735062
 30
0.0
 11
-66.38102647391573
 21
99.24150880019039
 31
0.0
  0
LINE
  5
65
330
2
100
AcDbEntity
  8
20MM-JOINT
 62
     1
100
AcDbLine
 10
-66.19291841038394
 20
97.1739872413184
 30
0.0
 11
-67.50967937362209
 21
96.23420434054317
 31
0.0
  0
LINE
  5
66
330
2
100
AcDbEntity
  8
20MM-JOINT
 62
     1
100
AcDbLine
 10
-89.3161169746499
 20
99.83035729921965
 30
0.0
 11
-87.05881117523716
 21
99.07853152715517
 31
0.0
  0
LINE
  5
67
330
2
100
AcDbEntity
  8
20MM-JOINT
 62
     1
100
AcDbLine
 10
-88.75179052479671
 20
98.32670438370138
 30
0.0
 11
-89.12800665186029
 21
99.6424001705089
 31
0.0
  0
LINE
  5
68
330
2
100
AcDbEntity
  8
20MM-JOINT
 62
     1
100
AcDbLine
 10
-88.18746407494353
 20
97.5748786116369
 30
0.0
 11
-88.75179052479671
 21
98.32670438370138
 31
0.0
  0
LINE
  5
69
330
2
100
AcDbEntity
  8
20MM-JOINT
 62
     1
100
AcDbLine
 10
-86.87070311170534
 20
97.76283574034767
 30
0.0
 11
-88.18746407494353
 21
97.5748786116369
 31
0.0
  0
LINE
  5
6A
330
2
100
AcDbEntity
  8
20MM-JOINT
 62
     1
100
AcDbLine
 10
-87.05881117523716
 20
99.07853152715517
 30
0.0
 11
-86.87070311170534
 21
97.76283574034767
 31
0.0
  0
TEXT
  5
6B
330
2
100
AcDbEntity
  8
20MM-JOINT
 62
     6
100
AcDbText
 10
-87.58727627209884
 20
211.6285658398811
 30
0.0
 40
5.0
  1
SERVICEABILITY
  7
ROMANS
 72
     4
 11
-59.73013341495598
 21
214.1285658398811
 31
0.0
100
AcDbText
  0
LINE
  5
6C
330
2
100
AcDbEntity
  8
20MM-JOINT
 62
     6
100
AcDbLine
 10
-93.10750396992181
 20
222.4792049210924
 30
0.0
 11
-93.10750396992181
 21
169.3809587869996
 31
0.0
  0
LINE
  5
6D
330
2
100
AcDbEntity
  8
20MM-JOINT
 62
     6
100
AcDbLine
 10
-28.23691983512219
 20
222.4792049210924
 30
0.0
 11
-28.23691983512219
 21
169.3809587869996
 31
0.0
  0
TEXT
  5
6E
330
2
100
AcDbEntity
  8
20MM-JOINT
 62
     6
100
AcDbText
 10
-194.3729905578131
 20
180.4346111181934
 30
0.0
 40
5.0
  1
ESDQ20
  7
ROMANS
 72
     4
 11
-179.730133414956
 21
182.6965158800982
 31
0.0
100
AcDbText
  0
TEXT
  5
6F
330
2
100
AcDbEntity
  8
20MM-JOINT
 62
     6
100
AcDbText
 10
-197.7063238911464
 20
211.5724520214542
 30
0.0
 40
5.0
  1
DSD REF:
  7
ROMANS
 72
     4
 11
-179.730133414956
 21
214.0724520214542
 31
0.0
100
AcDbText
  0
LINE
  5
70
330
2
100
AcDbEntity
  8
20MM-JOINT
 62
     6
100
AcDbLine
 10
-153.6155975269846
 20
222.4792049210924
 30
0.0
 11
-153.6155975269846
 21
169.3809587869996
 31
0.0
  0
LINE
  5
71
330
2
100
AcDbEntity
  8
20MM-JOINT
 62
     6
100
AcDbLine
 10
-203.6155975269847
 20
222.4792049210924
 30
0.0
 11
-203.6155975269847
 21
169.3809587869996
 31
0.0
  0
TEXT
  5
72
330
2
100
AcDbEntity
  8
20MM-JOINT
 62
     6
100
AcDbText
 10
-148.8717728653228
 20
211.5724520214542
 30
0.0
 40
5.0
  1
DESIGN JOINT
  7
ROMANS
 72
     4
 11
-122.8003442938942
 21
214.0724520214542
 31
0.0
100
AcDbText
  0
LINE
  5
73
330
2
100
AcDbEntity
  8
20MM-JOINT
 62
     6
100
AcDbLine
 10
-203.6155975269847
 20
222.4792049210924
 30
0.0
 11
-28.23691983512219
 21
222.4792049210924
 31
0.0
  0
LINE
  5
74
330
2
100
AcDbEntity
  8
20MM-JOINT
 62
     6
100
AcDbLine
 10
-203.6155975269847
 20
169.3809587869996
 30
0.0
 11
-28.23691983512219
 21
169.3809587869996
 31
0.0
  0
LINE
  5
75
330
2
100
AcDbEntity
  8
20MM-JOINT
 62
     6
100
AcDbLine
 10
-203.6155975269847
 20
196.4084438620467
 30
0.0
 11
-28.23691983512217
 21
196.4084438620468
 31
0.0
  0
LINE
  5
76
330
2
100
AcDbEntity
  8
20MM-JOINT
 62
     2
100
AcDbLine
 10
-20.0
 20
125.0
 30
0.0
 11
-269.9999999999999
 21
125.0
 31
0.0
  0
CIRCLE
  5
77
330
2
100
AcDbEntity
  8
ANCON-DSD
 62
     1
100
AcDbCircle
 10
70.52551157986757
 20
72.18182050802011
 30
0.0
 40
0.3762183863213835
  0
LINE
  5
78
330
2
100
AcDbEntity
  8
ANCON-DSD
 62
     1
100
AcDbLine
 10
49.26923272877437
 20
85.71469221354426
 30
0.0
 11
48.51679870791675
 21
85.71469221354426
 31
0.0
  0
CIRCLE
  5
79
330
2
100
AcDbEntity
  8
ANCON-DSD
 62
     1
100
AcDbCircle
 10
55.66492711644196
 20
75.00116921034585
 30
0.0
 40
0.2659198672028824
  0
LINE
  5
7A
330
2
100
AcDbEntity
  8
ANCON-DSD
 62
     1
100
AcDbLine
 10
30.39958505251837
 20
79.03518538670965
 30
0.0
 11
30.39958505251837
 21
79.95147484114657
 31
0.0
  0
LINE
  5
7B
330
2
100
AcDbEntity
  8
ANCON-DSD
 62
     1
100
AcDbLine
 10
30.39958505251837
 20
79.95147484114657
 30
0.0
 11
31.80569657415052
 21
79.95147484114657
 31
0.0
  0
LINE
  5
7C
330
2
100
AcDbEntity
  8
ANCON-DSD
 62
     1
100
AcDbLine
 10
31.80569657415052
 20
79.95147484114657
 30
0.0
 11
31.98910252469262
 21
78.42432760994651
 31
0.0
  0
LINE
  5
7D
330
2
100
AcDbEntity
  8
ANCON-DSD
 62
     1
100
AcDbLine
 10
31.98910252469262
 20
78.42432760994651
 30
0.0
 11
31.07207277198217
 21
77.93563943603146
 31
0.0
  0
LINE
  5
7E
330
2
100
AcDbEntity
  8
ANCON-DSD
 62
     1
100
AcDbLine
 10
31.07207277198217
 20
77.93563943603146
 30
0.0
 11
30.39958505251837
 21
79.03518538670965
 31
0.0
  0
LINE
  5
7F
330
2
100
AcDbEntity
  8
ANCON-DSD
 62
     1
100
AcDbLine
 10
25.50875817301491
 20
85.63246109077883
 30
0.0
 11
24.95854032138864
 21
84.34965724921324
 31
0.0
  0
LINE
  5
80
330
2
100
AcDbEntity
  8
ANCON-DSD
 62
     1
100
AcDbLine
 10
24.95854032138864
 20
84.34965724921324
 30
0.0
 11
24.59172842030446
 21
85.44920319989145
 31
0.0
  0
LINE
  5
81
330
2
100
AcDbEntity
  8
ANCON-DSD
100
AcDbLine
 10
0.0000000000000027
 20
38.0
 30
0.0
 11
0.0000000000000027
 21
38.01812056130581
 31
0.0
  0
LINE
  5
82
330
2
100
AcDbEntity
  8
ANCON-DSD
100
AcDbLine
 10
0.0000000000000027
 20
38.0
 30
0.0
 11
2.000000000000002
 21
38.0
 31
0.0
  0
LINE
  5
83
330
2
100
AcDbEntity
  8
ANCON-DSD
100
AcDbLine
 10
0.0000000000000027
 20
-38.0
 30
0.0
 11
2.000000000000002
 21
-38.0
 31
0.0
  0
LINE
  5
84
330
2
100
AcDbEntity
  8
ANCON-DSD
100
AcDbLine
 10
0.0000000000000027
 20
38.01812056130581
 30
0.0
 11
0.0000000000000027
 21
-38.0
 31
0.0
  0
LINE
  5
85
330
2
100
AcDbEntity
  8
ANCON-DSD
100
AcDbLine
 10
2.000000000000002
 20
38.01812056130581
 30
0.0
 11
2.000000000000002
 21
-38.0
 31
0.0
  0
LINE
  5
86
330
2
100
AcDbEntity
  8
20MM-JOINT
 62
     1
100
AcDbLine
 10
-56.66097825559656
 20
72.96175218737983
 30
0.0
 11
-55.98848823856117
 21
74.3056415276925
 31
0.0
  0
LINE
  5
87
330
2
100
AcDbEntity
  8
20MM-JOINT
 62
     1
100
AcDbLine
 10
-55.74394850288611
 20
73.1450100782672
 30
0.0
 11
-56.29416635451237
 21
71.86220623670158
 31
0.0
  0
LINE
  5
88
330
2
100
AcDbEntity
  8
20MM-JOINT
 62
     1
100
AcDbLine
 10
-56.29416635451237
 20
71.86220623670158
 30
0.0
 11
-56.66097825559656
 21
72.96175218737983
 31
0.0
  0
LINE
  5
89
330
2
100
AcDbEntity
  8
20MM-JOINT
 62
     1
100
AcDbLine
 10
-55.49940646963945
 20
73.69478235628321
 30
0.0
 11
-55.74394850288611
 21
73.1450100782672
 31
0.0
  0
LINE
  5
8A
330
2
100
AcDbEntity
  8
20MM-JOINT
 62
     1
100
AcDbLine
 10
-55.98848823856117
 20
74.3056415276925
 30
0.0
 11
-55.49940646963945
 21
73.69478235628321
 31
0.0
  0
CIRCLE
  5
8B
330
2
100
AcDbEntity
  8
20MM-JOINT
 62
     1
100
AcDbCircle
 10
-51.38603650482038
 20
56.22206533102366
 30
0.0
 40
0.3762183863213835
  0
LINE
  5
8C
330
2
100
AcDbEntity
  8
20MM-JOINT
 62
     1
100
AcDbLine
 10
-69.9501858048841
 20
81.70047350866207
 30
0.0
 11
-69.766779854342
 21
80.17332627746203
 31
0.0
  0
LINE
  5
8D
330
2
100
AcDbEntity
  8
20MM-JOINT
 62
     1
100
AcDbLine
 10
-71.35629732651624
 20
80.78418405422519
 30
0.0
 11
-71.35629732651624
 21
81.70047350866207
 31
0.0
  0
LINE
  5
8E
330
2
100
AcDbEntity
  8
20MM-JOINT
 62
     1
100
AcDbLine
 10
-71.35629732651624
 20
81.70047350866207
 30
0.0
 11
-69.9501858048841
 21
81.70047350866207
 31
0.0
  0
LINE
  5
8F
330
2
100
AcDbEntity
  8
20MM-JOINT
 62
     1
100
AcDbLine
 10
-70.68380960705245
 20
79.684638103547
 30
0.0
 11
-71.35629732651624
 21
80.78418405422519
 31
0.0
  0
LINE
  5
90
330
2
100
AcDbEntity
  8
20MM-JOINT
 62
     1
100
AcDbLine
 10
-69.766779854342
 20
80.17332627746203
 30
0.0
 11
-70.68380960705245
 21
79.684638103547
 31
0.0
  0
CIRCLE
  5
91
330
2
100
AcDbEntity
  8
20MM-JOINT
 62
     1
100
AcDbCircle
 10
-68.33168999015892
 20
63.90264068646167
 30
0.0
 40
0.2659198672028824
  0
LINE
  5
92
330
2
100
AcDbEntity
  8
20MM-JOINT
 62
     1
100
AcDbLine
 10
-90.1779583061681
 20
83.9920522603465
 30
0.0
 11
-88.67308927939815
 21
82.11248645879601
 31
0.0
  0
LINE
  5
93
330
2
100
AcDbEntity
  8
20MM-JOINT
 62
     1
100
AcDbLine
 10
-89.23741346999355
 20
81.5486178154423
 30
0.0
 11
-91.11850088308489
 21
81.5486178154423
 31
0.0
  0
LINE
  5
94
330
2
100
AcDbEntity
  8
20MM-JOINT
 62
     1
100
AcDbLine
 10
-91.11850088308489
 20
82.11248645879601
 30
0.0
 11
-90.1779583061681
 21
83.9920522603465
 31
0.0
  0
LINE
  5
95
330
2
100
AcDbEntity
  8
20MM-JOINT
 62
     1
100
AcDbLine
 10
-91.11850088308489
 20
81.5486178154423
 30
0.0
 11
-91.11850088308489
 21
82.11248645879601
 31
0.0
  0
LINE
  5
96
330
2
100
AcDbEntity
  8
20MM-JOINT
 62
     1
100
AcDbLine
 10
-88.67308927939815
 20
82.11248645879601
 30
0.0
 11
-89.23741346999355
 21
81.5486178154423
 31
0.0
  0
LINE
  5
97
330
2
100
AcDbEntity
  8
20MM-JOINT
 62
     2
100
AcDbLine
 10
-19.99999999999994
 20
-125.0
 30
0.0
 11
-19.99999999999997
 21
-14.99999999999983
 31
0.0
  0
DIMENSION
  5
98
330
2
100
AcDbEntity
  8
DIMS
100
AcDbDimension
  2
*D2
 10
2.000000000000002
 20
-48.71360481256672
 30
0.0
 11
12.5
 21
-45.71360481256672
 31
0.0
 71
     5
 42
-1.0
  3
1-2
100
AcDbAlignedDimension
 13
0.0000000000000027
 23
-38.0
 33
0.0
 14
2.000000000000002
 24
-38.0
 34
0.0
100
AcDbRotatedDimension
  0
DIMENSION
  5
A9
330
2
100
AcDbEntity
  8
20MM-DIMS
100
AcDbDimension
  2
*D7
 10
0.0000000000000359
 20
-84.35748026285267
 30
0.0
 11
-9.999999999999966
 21
-81.35748026285268
 31
0.0
 71
     5
 42
-1.0
  3
1-2
100
AcDbAlignedDimension
 13
-19.99999999999997
 23
-14.99999999999983
 33
0.0
 14
0.0000000000000359
 24
-38.00000000000001
 34
0.0
100
AcDbRotatedDimension
  0
LINE
  5
C4
330
2
100
AcDbEntity
  8
20MM-JOINT
 62
     3
100
AcDbLine
 10
-218.0
 20
15.00000000000017
 30
0.0
 11
-220.0
 21
13.00000000000017
 31
0.0
  0
LINE
  5
C5
330
2
100
AcDbEntity
  8
20MM-JOINT
 62
     3
100
AcDbLine
 10
-220.0
 20
-12.99999999999977
 30
0.0
 11
-218.0
 21
-14.99999999999977
 31
0.0
  0
LINE
  5
C6
330
2
100
AcDbEntity
  8
20MM-JOINT
 62
     3
100
AcDbLine
 10
-219.9999999999999
 20
13.00000000000017
 30
0.0
 11
-220.0
 21
-12.99999999999977
 31
0.0
  0
LINE
  5
C7
330
2
100
AcDbEntity
  8
20MM-JOINT
 62
     3
100
AcDbLine
 10
-218.0
 20
15.00000000000017
 30
0.0
 11
-218.0
 21
-14.99999999999983
 31
0.0
  0
LINE
  5
C8
330
2
100
AcDbEntity
  8
20MM-JOINT
 62
     3
100
AcDbLine
 10
-218.0
 20
15.00000000000017
 30
0.0
 11
0.0000000000000027
 21
15.00000000000017
 31
0.0
  0
LINE
  5
C9
330
2
100
AcDbEntity
  8
20MM-JOINT
  6
CENTER2
 62
     1
100
AcDbLine
 10
-230.0
 20
0.0000000000001705
 30
0.0
 11
0.0000000000000027
 21
0.0000000000001705
 31
0.0
  0
LINE
  5
CB
330
2
100
AcDbEntity
  8
20MM-JOINT
 62
     3
100
AcDbLine
 10
-218.0
 20
-14.99999999999983
 30
0.0
 11
0.0000000000000027
 21
-14.99999999999983
 31
0.0
  0
LINE
  5
CC
330
2
100
AcDbEntity
  8
20MM-JOINT
 62
     2
100
AcDbLine
 10
-19.99999999999994
 20
-125.0
 30
0.0
 11
-269.9999999999999
 21
-125.0
 31
0.0
  0
DIMENSION
  5
CD
330
2
100
AcDbEntity
  8
20MM-DIMS
100
AcDbDimension
  2
*D11
 10
-19.99999999999997
 20
-84.35748026285267
 30
0.0
 11
-120.0
 21
-81.35748026285268
 31
0.0
 70
    32
 71
     5
 42
200.0
  3
1-2
100
AcDbAlignedDimension
 13
-220.0
 23
-12.99999999999977
 33
0.0
 14
-19.99999999999997
 24
-14.99999999999983
 34
0.0
100
AcDbRotatedDimension
1001
ACAD
1000
DSTYLE
1002
{
1070
    40
1040
1.0
1002
}
  0
LINE
  5
E7
330
2
100
AcDbEntity
  8
CONCRETE
100
AcDbLine
 10
0.000000000000053
 20
-124.9999999999999
 30
0.0
 11
0.0000000000000039
 21
125.0
 31
0.0
  0
INSERT
  5
E9
330
2
100
AcDbEntity
  8
ANCON-DSD
 62
     1
100
AcDbBlockReference
  2
*X0
 10
7068.773336716884
 20
16397.56628781302
 30
0.0
 41
-1.0
 50
87.27011424167661
1001
ACAD
1000
HATCH
1002
{
1070
    16
1000
AR-CONC
1040
0.3
1040
0.0
1002
}
  0
INSERT
  5
FC
330
2
100
AcDbEntity
  8
ANCON-DSD
 62
     1
100
AcDbBlockReference
  2
*X0
 10
16658.39032015217
 20
-6147.402386290828
 30
0.0
 41
-1.0
1001
ACAD
1000
HATCH
1002
{
1070
    16
1000
AR-CONC
1040
0.3
1040
0.0
1002
}
  0
LINE
  5
FD
330
2
100
AcDbEntity
  8
ANCON-DSD
 62
     1
100
AcDbLine
 10
49.26923272877437
 20
86.27856157423922
 30
0.0
 11
49.26923272877437
 21
85.71469221354426
 31
0.0
  0
LINE
  5
FE
330
2
100
AcDbEntity
  8
ANCON-DSD
 62
     1
100
AcDbLine
 10
48.51679870791675
 20
85.71469221354426
 30
0.0
 11
48.51679870791675
 21
86.09060512067424
 31
0.0
  0
LINE
  5
FF
330
2
100
AcDbEntity
  8
ANCON-DSD
 62
     1
100
AcDbLine
 10
24.59172842030446
 20
85.44920319989145
 30
0.0
 11
25.26421843733985
 21
86.79309254020413
 31
0.0
  0
LINE
  5
100
330
2
100
AcDbEntity
  8
ANCON-DSD
 62
     1
100
AcDbLine
 10
25.75330020626156
 20
86.18223336879488
 30
0.0
 11
25.50875817301491
 21
85.63246109077883
 31
0.0
  0
INSERT
  5
101
330
2
100
AcDbEntity
  8
20MM-JOINT
 62
     1
100
AcDbBlockReference
  2
*X1
 10
37072.55049834766
 20
29657.20883171042
 30
0.0
 41
-1.0
 50
327.4017962361148
1001
ACAD
1000
HATCH
1002
{
1070
    16
1000
AR-CONC
1040
0.3
1040
0.0
1002
}
  0
INSERT
  5
11A
330
2
100
AcDbEntity
  8
20MM-JOINT
 62
     1
100
AcDbBlockReference
  2
*X0
 10
14630.89201739332
 20
10040.98909938927
 30
0.0
 41
-1.0
 50
54.67191047779144
1001
ACAD
1000
HATCH
1002
{
1070
    16
1000
AR-CONC
1040
0.3
1040
0.0
1002
}
  0
INSERT
  5
11B
330
2
100
AcDbEntity
  8
20MM-JOINT
 62
     1
100
AcDbBlockReference
  2
*X0
 10
10563.87477423076
 20
-14118.80678445736
 30
0.0
 41
-1.0
 50
327.4017962361148
1001
ACAD
1000
HATCH
1002
{
1070
    16
1000
AR-CONC
1040
0.3
1040
0.0
1002
}
  0
LINE
  5
11C
330
2
100
AcDbEntity
  8
20MM-JOINT
 62
     2
100
AcDbLine
 10
-19.99999999999997
 20
15.00000000000017
 30
0.0
 11
-20.0
 21
125.0
 31
0.0
  0
TEXT
  5
11D
330
2
100
AcDbEntity
  8
DIMS
 62
     1
100
AcDbText
 10
9.424557222835098
 20
214.1307222887613
 30
0.0
 40
5.0
  1
SPECIFICATION BY PRODUCT
  7
ROMANS
 72
     4
 11
62.87693817521603
 21
216.6307222887613
 31
0.0
100
AcDbText
  0
TEXT
  5
11E
330
2
100
AcDbEntity
  8
DIMS
 62
     1
100
AcDbText
 10
9.568193832461361
 20
184.1962678242651
 30
0.0
 40
5.0
  1
SPECIFICATION BY DESCRIPTION
  7
ROMANS
 72
     4
 11
69.21105097531849
 21
186.6962678242651
 31
0.0
100
AcDbText
  0
LINE
  5
11F
330
2
100
AcDbEntity
  8
ANCON-DSD
  6
CENTER2
 62
     1
100
AcDbLine
 10
-0.0000000000001141
 20
0.0000000000000028
 30
0.0
 11
184.0
 21
0.0000000000000028
 31
0.0
  0
LINE
  5
120
330
2
100
AcDbEntity
  8
ANCON-DSD
  6
HIDDEN
 62
     3
100
AcDbLine
 10
1.999999999999945
 20
16.8
 30
0.0
 11
160.0
 21
16.8
 31
0.0
  0
LINE
  5
121
330
2
100
AcDbEntity
  8
ANCON-DSD
  6
HIDDEN
 62
     3
100
AcDbLine
 10
2.000000000000002
 20
-16.79999999999999
 30
0.0
 11
160.0
 21
-16.79999999999999
 31
0.0
  0
DIMENSION
  5
122
330
2
100
AcDbEntity
  8
DIMS
100
AcDbDimension
  2
*D4
 10
175.0
 20
-84.35748026285267
 30
0.0
 11
87.50000000000001
 21
-81.35748026285268
 31
0.0
 71
     5
 42
-1.0
  3
1-2
100
AcDbAlignedDimension
 13
0.0000000000000027
 23
-38.0
 33
0.0
 14
175.0
 24
-16.79999999999999
 34
0.0
100
AcDbRotatedDimension
  0
LINE
  5
12F
330
2
100
AcDbEntity
  8
CONCRETE
  6
Continuous
 62
     2
100
AcDbLine
 10
-0.0000000000001141
 20
125.0
 30
0.0
 11
250.0
 21
125.0
 31
0.0
  0
LINE
  5
130
330
2
100
AcDbEntity
  8
CONCRETE
  6
Continuous
 62
     2
100
AcDbLine
 10
-0.0000000000001141
 20
-125.0
 30
0.0
 11
250.0
 21
-125.0
 31
0.0
  0
INSERT
  5
131
330
2
100
AcDbEntity
  8
ANCON-DSD
 62
     1
100
AcDbBlockReference
  2
*X1
 10
15407.05334707625
 20
45013.94618519586
 30
0.0
 41
-1.0
1001
ACAD
1000
HATCH
1002
{
1070
    16
1000
AR-CONC
1040
0.3
1040
0.0
1002
}
  0
LINE
  5
132
330
2
100
AcDbEntity
  8
20MM-JOINT
  6
HIDDEN
 62
     3
100
AcDbLine
 10
0.0000000000000027
 20
15.00000000000017
 30
0.0
 11
127.9962777280847
 21
15.00000000000017
 31
0.0
  0
LINE
  5
133
330
2
100
AcDbEntity
  8
20MM-JOINT
  6
HIDDEN
 62
     3
100
AcDbLine
 10
0.0000000000000027
 20
-14.99999999999983
 30
0.0
 11
127.9962777280847
 21
-14.99999999999983
 31
0.0
  0
DIMENSION
  5
134
330
2
100
AcDbEntity
  8
20MM-DIMS
 62
     1
100
AcDbDimension
  2
*D3
 10
129.9962777280847
 20
-59.84107725227959
 30
0.0
 11
64.99813886404236
 21
-56.84107725227959
 31
0.0
 71
     5
 42
-1.0
  3
1-2
100
AcDbAlignedDimension
 13
0.0000000000000027
 23
-38.0
 33
0.0
 14
129.9962777280847
 24
-12.99999999999983
 34
0.0
100
AcDbRotatedDimension
  0
LINE
  5
141
330
2
100
AcDbEntity
  8
ANCON-DSD
  6
Continuous
 62
     3
100
AcDbLine
 10
1.999999999999943
 20
20.00000000000001
 30
0.0
 11
180.0
 21
20.00000000000001
 31
0.0
  0
LINE
  5
142
330
2
100
AcDbEntity
  8
ANCON-DSD
  6
Continuous
 62
     3
100
AcDbLine
 10
2.0
 20
-20.0
 30
0.0
 11
180.0
 21
-20.0
 31
0.0
  0
DIMENSION
  5
143
330
2
100
AcDbEntity
  8
DIMS
100
AcDbDimension
  2
*D5
 10
160.0
 20
-72.35748026285268
 30
0.0
 11
80.00000000000001
 21
-69.35748026285267
 31
0.0
 71
     5
 42
-1.0
  3
1-2
100
AcDbAlignedDimension
 13
0.0000000000000027
 23
-38.0
 33
0.0
 14
160.0
 24
-16.79999999999999
 34
0.0
100
AcDbRotatedDimension
  0
ENDSEC
  0
SECTION
  2
OBJECTS
  0
DICTIONARY
  5
9
330
0
100
AcDbDictionary
281
     1
  3
ACAD_COLOR
350
18C
  3
ACAD_GROUP
350
23
  3
ACAD_LAYOUT
350
D
  3
ACAD_MATERIAL
350
15F
  3
ACAD_MLEADERSTYLE
350
1B1
  3
ACAD_MLINESTYLE
350
24
  3
ACAD_PLOTSETTINGS
350
25
  3
ACAD_PLOTSTYLENAME
350
8
  3
ACAD_SCALELIST
350
18F
  3
ACAD_TABLESTYLE
350
18D
  3
ACAD_VISUALSTYLE
350
178
  3
ACDB_RECOMPOSE_DATA
350
20E
  3
AcDbVariableDictionary
350
1FE
  0
DICTIONARY
  5
1C2
330
6
100
AcDbDictionary
280
     1
281
     1
  3
ADSK_XREC_LAYER_RECONCILED
360
1C3
  0
DICTIONARY
  5
1C4
330
99
100
AcDbDictionary
280
     1
281
     1
  3
ADSK_XREC_LAYER_RECONCILED
360
1C5
  0
DICTIONARY
  5
1C6
330
3E
100
AcDbDictionary
280
     1
281
     1
  3
ADSK_XREC_LAYER_RECONCILED
360
1C7
  0
DICTIONARY
  5
1C8
330
E8
100
AcDbDictionary
280
     1
281
     1
  3
ADSK_XREC_LAYER_RECONCILED
360
1C9
  0
DICTIONARY
  5
1CA
330
3B
100
AcDbDictionary
280
     1
281
     1
  3
ADSK_XREC_LAYER_RECONCILED
360
1CB
  0
DICTIONARY
  5
1CC
330
2D
100
AcDbDictionary
280
     1
281
     1
  3
ADSK_XREC_LAYER_RECONCILED
360
1CD
  0
DICTIONARY
  5
1CE
330
2B
100
AcDbDictionary
280
     1
281
     1
  3
ADSK_XREC_LAYER_RECONCILED
360
1CF
  0
DICTIONARY
  5
1D0
330
AA
100
AcDbDictionary
280
     1
281
     1
  3
ADSK_XREC_LAYER_RECONCILED
360
1D1
  0
DICTIONARY
  5
1D2
330
26
100
AcDbDictionary
280
     1
281
     1
  3
ADSK_XREC_LAYER_RECONCILED
360
1D3
  0
DICTIONARY
  5
3
330
2
100
AcDbDictionary
280
     1
281
     1
  3
ACAD_LAYOUTSELFREF
360
4
  0
DICTIONARY
  5
F
330
E
100
AcDbDictionary
280
     1
281
     1
  3
ACAD_LAYOUTSELFREF
360
10
  0
DICTIONARY
  5
18C
102
{ACAD_REACTORS
330
9
102
}
330
9
100
AcDbDictionary
281
     1
  0
DICTIONARY
  5
23
102
{ACAD_REACTORS
330
9
102
}
330
9
100
AcDbDictionary
281
     1
  0
DICTIONARY
  5
D
102
{ACAD_REACTORS
330
9
102
}
330
9
100
AcDbDictionary
281
     1
  3
Layout1
350
13
  3
Model
350
C
  0
DICTIONARY
  5
15F
102
{ACAD_REACTORS
330
9
102
}
330
9
100
AcDbDictionary
281
     1
  3
ByBlock
350
168
  3
ByLayer
350
160
  3
Global
350
170
  0
DICTIONARY
  5
1B1
102
{ACAD_REACTORS
330
9
102
}
330
9
100
AcDbDictionary
281
     1
  3
Standard
350
1B2
  0
DICTIONARY
  5
24
102
{ACAD_REACTORS
330
9
102
}
330
9
100
AcDbDictionary
281
     1
  3
Standard
350
28
  0
DICTIONARY
  5
25
102
{ACAD_REACTORS
330
9
102
}
330
9
100
AcDbDictionary
281
     1
  0
ACDBDICTIONARYWDFLT
  5
8
102
{ACAD_REACTORS
330
9
102
}
330
9
100
AcDbDictionary
281
     1
  3
Normal
350
7
100
AcDbDictionaryWithDefault
340
7
  0
DICTIONARY
  5
18F
102
{ACAD_REACTORS
330
9
102
}
330
9
100
AcDbDictionary
281
     1
  3
A0
350
190
  3
A1
350
191
  3
A2
350
192
  3
A3
350
193
  3
A4
350
194
  3
A5
350
195
  3
A6
350
196
  3
A7
350
197
  3
A8
350
198
  3
A9
350
199
  3
B0
350
19A
  3
B1
350
19B
  3
B2
350
19C
  3
B3
350
19D
  3
B4
350
19E
  3
B5
350
19F
  3
B6
350
1A0
  3
B7
350
1A1
  3
B8
350
1A2
  3
B9
350
1A3
  3
C0
350
1A4
  3
C1
350
1A5
  3
C2
350
1A6
  3
C3
350
1A7
  3
C4
350
1A8
  3
C5
350
1A9
  3
C6
350
1AA
  3
C7
350
1AB
  3
C8
350
1AC
  3
C9
350
1AD
  3
D0
350
1AE
  3
D1
350
1AF
  3
D2
350
1B0
  0
DICTIONARY
  5
18D
102
{ACAD_REACTORS
330
9
102
}
330
9
100
AcDbDictionary
281
     1
  3
Standard
350
18E
  0
DICTIONARY
  5
178
102
{ACAD_REACTORS
330
9
102
}
330
9
100
AcDbDictionary
281
     1
  3
2dWireframe
350
17E
  3
3D Hidden
350
180
  3
3dWireframe
350
17F
  3
Basic
350
17D
  3
Brighten
350
184
  3
ColorChange
350
188
  3
Conceptual
350
181
  3
Dim
350
183
  3
EdgeColorOff
350
18B
  3
Facepattern
350
187
  3
Flat
350
179
  3
FlatWithEdges
350
17A
  3
Gouraud
350
17B
  3
GouraudWithEdges
350
17C
  3
JitterOff
350
189
  3
Linepattern
350
186
  3
OverhangOff
350
18A
  3
Realistic
350
182
  3
Thicken
350
185
  0
XRECORD
  5
20E
102
{ACAD_REACTORS
330
9
102
}
330
9
100
AcDbXrecord
280
     1
 90
        1
330
18E
  0
DICTIONARY
  5
1FE
102
{ACAD_REACTORS
330
9
102
}
330
9
100
AcDbDictionary
281
     1
  3
CANNOSCALE
350
202
  3
CMLEADERSTYLE
350
200
  3
CTABLESTYLE
350
1FF
  3
LAYEREVAL
350
204
  3
LAYERNOTIFY
350
205
  3
LIGHTINGUNITS
350
203
  3
MSLTSCALE
350
201
  3
XCLIPFRAME
350
20C
  0
XRECORD
  5
1C3
102
{ACAD_REACTORS
330
1C2
102
}
330
1C2
100
AcDbXrecord
280
     1
290
     1
  0
XRECORD
  5
1C5
102
{ACAD_REACTORS
330
1C4
102
}
330
1C4
100
AcDbXrecord
280
     1
290
     1
  0
XRECORD
  5
1C7
102
{ACAD_REACTORS
330
1C6
102
}
330
1C6
100
AcDbXrecord
280
     1
290
     1
  0
XRECORD
  5
1C9
102
{ACAD_REACTORS
330
1C8
102
}
330
1C8
100
AcDbXrecord
280
     1
290
     1
  0
XRECORD
  5
1CB
102
{ACAD_REACTORS
330
1CA
102
}
330
1CA
100
AcDbXrecord
280
     1
290
     1
  0
XRECORD
  5
1CD
102
{ACAD_REACTORS
330
1CC
102
}
330
1CC
100
AcDbXrecord
280
     1
290
     1
  0
XRECORD
  5
1CF
102
{ACAD_REACTORS
330
1CE
102
}
330
1CE
100
AcDbXrecord
280
     1
290
     1
  0
XRECORD
  5
1D1
102
{ACAD_REACTORS
330
1D0
102
}
330
1D0
100
AcDbXrecord
280
     1
290
     1
  0
XRECORD
  5
1D3
102
{ACAD_REACTORS
330
1D2
102
}
330
1D2
100
AcDbXrecord
280
     1
290
     1
  0
XRECORD
  5
4
102
{ACAD_REACTORS
330
3
102
}
330
3
100
AcDbXrecord
280
     1
340
2
  0
XRECORD
  5
10
102
{ACAD_REACTORS
330
F
102
}
330
F
100
AcDbXrecord
280
     1
340
E
  0
LAYOUT
  5
13
102
{ACAD_REACTORS
330
D
102
}
330
D
100
AcDbPlotSettings
  1

  2
None
  4

  6

 40
0.0
 41
0.0
 42
0.0
 43
0.0
 44
0.0
 45
0.0
 46
0.0
 47
0.0
 48
0.0
 49
0.0
140
0.0
141
0.0
142
1.0
143
1.0
 70
   688
 72
     0
 73
     0
 74
     5
  7
Std pen settings.ctb
 75
    16
147
1.0
 76
     0
 77
     2
 78
   300
148
0.0
149
0.0
100
AcDbLayout
  1
Layout1
 70
     1
 71
     1
 10
-0.1979161059762549
 20
-0.1979166691697489
 11
16.34375024029589
 21
11.49541603298638
 12
0.0
 22
0.0
 32
0.0
 14
1.614583349603368
 24
1.129749872553066
 34
0.0
 15
14.5312501464303
 25
10.1677488529776
 35
0.0
146
0.0
 13
0.0
 23
0.0
 33
0.0
 16
1.0
 26
0.0
 36
0.0
 17
0.0
 27
1.0
 37
0.0
 76
     0
330
E
  0
LAYOUT
  5
C
102
{ACAD_REACTORS
330
D
102
}
330
D
100
AcDbPlotSettings
  1

  2
None
  4

  6

 40
0.0
 41
0.0
 42
0.0
 43
0.0
 44
0.0
 45
0.0
 46
0.0
 47
0.0
 48
0.0
 49
0.0
140
0.0
141
0.0
142
1.0
143
1.0
 70
  1712
 72
     0
 73
     0
 74
     0
  7
Std pen settings.ctb
 75
     0
147
1.0
 76
     0
 77
     2
 78
   300
148
0.0
149
0.0
100
AcDbLayout
  1
Model
 70
     1
 71
     0
 10
0.0
 20
0.0
 11
12.0
 21
9.0
 12
0.0
 22
0.0
 32
0.0
 14
0.0
 24
0.0
 34
0.0
 15
0.0
 25
0.0
 35
0.0
146
0.0
 13
0.0
 23
0.0
 33
0.0
 16
1.0
 26
0.0
 36
0.0
 17
0.0
 27
1.0
 37
0.0
 76
     0
330
2
331
1E
  0
MATERIAL
  5
168
102
{ACAD_XDICTIONARY
360
169
102
}
102
{ACAD_REACTORS
330
15F
102
}
330
15F
100
AcDbMaterial
  1
ByBlock
 72
     0
 43
0.0208333333333333
 43
0.0
 43
0.0
 43
0.0
 43
0.0
 43
0.0208333333333333
 43
0.0
 43
0.0
 43
0.0
 43
0.0
 43
1.0
 43
0.0
 43
0.0
 43
0.0
 43
0.0
 43
1.0
 77
     0
 47
0.0208333333333333
 47
0.0
 47
0.0
 47
0.0
 47
0.0
 47
0.0208333333333333
 47
0.0
 47
0.0
 47
0.0
 47
0.0
 47
1.0
 47
0.0
 47
0.0
 47
0.0
 47
0.0
 47
1.0
171
     0
 49
0.0208333333333333
 49
0.0
 49
0.0
 49
0.0
 49
0.0
 49
0.0208333333333333
 49
0.0
 49
0.0
 49
0.0
 49
0.0
 49
1.0
 49
0.0
 49
0.0
 49
0.0
 49
0.0
 49
1.0
175
     0
142
0.0208333333333333
142
0.0
142
0.0
142
0.0
142
0.0
142
0.0208333333333333
142
0.0
142
0.0
142
0.0
142
0.0
142
1.0
142
0.0
142
0.0
142
0.0
142
0.0
142
1.0
179
     0
144
0.0208333333333333
144
0.0
144
0.0
144
0.0
144
0.0
144
0.0208333333333333
144
0.0
144
0.0
144
0.0
144
0.0
144
1.0
144
0.0
144
0.0
144
0.0
144
0.0
144
1.0
147
0.0208333333333333
147
0.0
147
0.0
147
0.0
147
0.0
147
0.0208333333333333
147
0.0
147
0.0
147
0.0
147
0.0
147
1.0
147
0.0
147
0.0
147
0.0
147
0.0
147
1.0
  0
MATERIAL
  5
160
102
{ACAD_XDICTIONARY
360
161
102
}
102
{ACAD_REACTORS
330
15F
102
}
330
15F
100
AcDbMaterial
  1
ByLayer
 72
     0
 43
0.0208333333333333
 43
0.0
 43
0.0
 43
0.0
 43
0.0
 43
0.0208333333333333
 43
0.0
 43
0.0
 43
0.0
 43
0.0
 43
1.0
 43
0.0
 43
0.0
 43
0.0
 43
0.0
 43
1.0
 77
     0
 47
0.0208333333333333
 47
0.0
 47
0.0
 47
0.0
 47
0.0
 47
0.0208333333333333
 47
0.0
 47
0.0
 47
0.0
 47
0.0
 47
1.0
 47
0.0
 47
0.0
 47
0.0
 47
0.0
 47
1.0
171
     0
 49
0.0208333333333333
 49
0.0
 49
0.0
 49
0.0
 49
0.0
 49
0.0208333333333333
 49
0.0
 49
0.0
 49
0.0
 49
0.0
 49
1.0
 49
0.0
 49
0.0
 49
0.0
 49
0.0
 49
1.0
175
     0
142
0.0208333333333333
142
0.0
142
0.0
142
0.0
142
0.0
142
0.0208333333333333
142
0.0
142
0.0
142
0.0
142
0.0
142
1.0
142
0.0
142
0.0
142
0.0
142
0.0
142
1.0
179
     0
144
0.0208333333333333
144
0.0
144
0.0
144
0.0
144
0.0
144
0.0208333333333333
144
0.0
144
0.0
144
0.0
144
0.0
144
1.0
144
0.0
144
0.0
144
0.0
144
0.0
144
1.0
147
0.0208333333333333
147
0.0
147
0.0
147
0.0
147
0.0
147
0.0208333333333333
147
0.0
147
0.0
147
0.0
147
0.0
147
1.0
147
0.0
147
0.0
147
0.0
147
0.0
147
1.0
  0
MATERIAL
  5
170
102
{ACAD_XDICTIONARY
360
171
102
}
102
{ACAD_REACTORS
330
15F
102
}
330
15F
100
AcDbMaterial
  1
Global
 72
     0
 43
0.0208333333333333
 43
0.0
 43
0.0
 43
0.0
 43
0.0
 43
0.0208333333333333
 43
0.0
 43
0.0
 43
0.0
 43
0.0
 43
1.0
 43
0.0
 43
0.0
 43
0.0
 43
0.0
 43
1.0
 77
     0
 47
0.0208333333333333
 47
0.0
 47
0.0
 47
0.0
 47
0.0
 47
0.0208333333333333
 47
0.0
 47
0.0
 47
0.0
 47
0.0
 47
1.0
 47
0.0
 47
0.0
 47
0.0
 47
0.0
 47
1.0
171
     0
 49
0.0208333333333333
 49
0.0
 49
0.0
 49
0.0
 49
0.0
 49
0.0208333333333333
 49
0.0
 49
0.0
 49
0.0
 49
0.0
 49
1.0
 49
0.0
 49
0.0
 49
0.0
 49
0.0
 49
1.0
175
     0
142
0.0208333333333333
142
0.0
142
0.0
142
0.0
142
0.0
142
0.0208333333333333
142
0.0
142
0.0
142
0.0
142
0.0
142
1.0
142
0.0
142
0.0
142
0.0
142
0.0
142
1.0
179
     0
144
0.0208333333333333
144
0.0
144
0.0
144
0.0
144
0.0
144
0.0208333333333333
144
0.0
144
0.0
144
0.0
144
0.0
144
1.0
144
0.0
144
0.0
144
0.0
144
0.0
144
1.0
147
0.0208333333333333
147
0.0
147
0.0
147
0.0
147
0.0
147
0.0208333333333333
147
0.0
147
0.0
147
0.0
147
0.0
147
1.0
147
0.0
147
0.0
147
0.0
147
0.0
147
1.0
  0
MLEADERSTYLE
  5
1B2
102
{ACAD_REACTORS
330
1B1
102
}
330
1B1
100
AcDbMLeaderStyle
170
     2
171
     1
172
     0
 90
        2
 40
0.0
 41
0.0
173
     1
 91
-1056964608
340
19
 92
       -2
290
     1
 42
0.09
291
     1
 43
0.36
  3
Standard
 44
0.18
300

342
16
174
     1
178
     6
175
     1
176
     0
 93
-1056964608
 45
0.18
292
     0
297
     0
 46
0.18
 94
-1056964608
 47
1.0
 49
1.0
140
1.0
293
     1
141
0.0
294
     1
177
     0
142
1.0
295
     0
296
     0
143
0.125
1001
ACAD_MLEADERVER
1070
     2
  0
MLINESTYLE
  5
28
102
{ACAD_REACTORS
330
24
102
}
330
24
100
AcDbMlineStyle
  2
STANDARD
 70
     0
  3

 62
   256
 51
90.0
 52
90.0
 71
     2
 49
0.5
 62
   256
  6
BYLAYER
 49
-0.5
 62
   256
  6
BYLAYER
  0
ACDBPLACEHOLDER
  5
7
102
{ACAD_REACTORS
330
8
102
}
330
8
  0
SCALE
  5
190
102
{ACAD_REACTORS
330
18F
102
}
330
18F
100
AcDbScale
 70
     0
300
1:1
140
1.0
141
1.0
290
     1
  0
SCALE
  5
191
102
{ACAD_REACTORS
330
18F
102
}
330
18F
100
AcDbScale
 70
     0
300
1:2
140
1.0
141
2.0
290
     0
  0
SCALE
  5
192
102
{ACAD_REACTORS
330
18F
102
}
330
18F
100
AcDbScale
 70
     0
300
1:4
140
1.0
141
4.0
290
     0
  0
SCALE
  5
193
102
{ACAD_REACTORS
330
18F
102
}
330
18F
100
AcDbScale
 70
     0
300
1:5
140
1.0
141
5.0
290
     0
  0
SCALE
  5
194
102
{ACAD_REACTORS
330
18F
102
}
330
18F
100
AcDbScale
 70
     0
300
1:8
140
1.0
141
8.0
290
     0
  0
SCALE
  5
195
102
{ACAD_REACTORS
330
18F
102
}
330
18F
100
AcDbScale
 70
     0
300
1:10
140
1.0
141
10.0
290
     0
  0
SCALE
  5
196
102
{ACAD_REACTORS
330
18F
102
}
330
18F
100
AcDbScale
 70
     0
300
1:16
140
1.0
141
16.0
290
     0
  0
SCALE
  5
197
102
{ACAD_REACTORS
330
18F
102
}
330
18F
100
AcDbScale
 70
     0
300
1:20
140
1.0
141
20.0
290
     0
  0
SCALE
  5
198
102
{ACAD_REACTORS
330
18F
102
}
330
18F
100
AcDbScale
 70
     0
300
1:30
140
1.0
141
30.0
290
     0
  0
SCALE
  5
199
102
{ACAD_REACTORS
330
18F
102
}
330
18F
100
AcDbScale
 70
     0
300
1:40
140
1.0
141
40.0
290
     0
  0
SCALE
  5
19A
102
{ACAD_REACTORS
330
18F
102
}
330
18F
100
AcDbScale
 70
     0
300
1:50
140
1.0
141
50.0
290
     0
  0
SCALE
  5
19B
102
{ACAD_REACTORS
330
18F
102
}
330
18F
100
AcDbScale
 70
     0
300
1:100
140
1.0
141
100.0
290
     0
  0
SCALE
  5
19C
102
{ACAD_REACTORS
330
18F
102
}
330
18F
100
AcDbScale
 70
     0
300
2:1
140
2.0
141
1.0
290
     0
  0
SCALE
  5
19D
102
{ACAD_REACTORS
330
18F
102
}
330
18F
100
AcDbScale
 70
     0
300
4:1
140
4.0
141
1.0
290
     0
  0
SCALE
  5
19E
102
{ACAD_REACTORS
330
18F
102
}
330
18F
100
AcDbScale
 70
     0
300
8:1
140
8.0
141
1.0
290
     0
  0
SCALE
  5
19F
102
{ACAD_REACTORS
330
18F
102
}
330
18F
100
AcDbScale
 70
     0
300
10:1
140
10.0
141
1.0
290
     0
  0
SCALE
  5
1A0
102
{ACAD_REACTORS
330
18F
102
}
330
18F
100
AcDbScale
 70
     0
300
100:1
140
100.0
141
1.0
290
     0
  0
SCALE
  5
1A1
102
{ACAD_REACTORS
330
18F
102
}
330
18F
100
AcDbScale
 70
     0
300
1/128" = 1'-0"
140
0.0078125
141
12.0
290
     0
  0
SCALE
  5
1A2
102
{ACAD_REACTORS
330
18F
102
}
330
18F
100
AcDbScale
 70
     0
300
1/64" = 1'-0"
140
0.015625
141
12.0
290
     0
  0
SCALE
  5
1A3
102
{ACAD_REACTORS
330
18F
102
}
330
18F
100
AcDbScale
 70
     0
300
1/32" = 1'-0"
140
0.03125
141
12.0
290
     0
  0
SCALE
  5
1A4
102
{ACAD_REACTORS
330
18F
102
}
330
18F
100
AcDbScale
 70
     0
300
1/16" = 1'-0"
140
0.0625
141
12.0
290
     0
  0
SCALE
  5
1A5
102
{ACAD_REACTORS
330
18F
102
}
330
18F
100
AcDbScale
 70
     0
300
3/32" = 1'-0"
140
0.09375
141
12.0
290
     0
  0
SCALE
  5
1A6
102
{ACAD_REACTORS
330
18F
102
}
330
18F
100
AcDbScale
 70
     0
300
1/8" = 1'-0"
140
0.125
141
12.0
290
     0
  0
SCALE
  5
1A7
102
{ACAD_REACTORS
330
18F
102
}
330
18F
100
AcDbScale
 70
     0
300
3/16" = 1'-0"
140
0.1875
141
12.0
290
     0
  0
SCALE
  5
1A8
102
{ACAD_REACTORS
330
18F
102
}
330
18F
100
AcDbScale
 70
     0
300
1/4" = 1'-0"
140
0.25
141
12.0
290
     0
  0
SCALE
  5
1A9
102
{ACAD_REACTORS
330
18F
102
}
330
18F
100
AcDbScale
 70
     0
300
3/8" = 1'-0"
140
0.375
141
12.0
290
     0
  0
SCALE
  5
1AA
102
{ACAD_REACTORS
330
18F
102
}
330
18F
100
AcDbScale
 70
     0
300
1/2" = 1'-0"
140
0.5
141
12.0
290
     0
  0
SCALE
  5
1AB
102
{ACAD_REACTORS
330
18F
102
}
330
18F
100
AcDbScale
 70
     0
300
3/4" = 1'-0"
140
0.75
141
12.0
290
     0
  0
SCALE
  5
1AC
102
{ACAD_REACTORS
330
18F
102
}
330
18F
100
AcDbScale
 70
     0
300
1" = 1'-0"
140
1.0
141
12.0
290
     0
  0
SCALE
  5
1AD
102
{ACAD_REACTORS
330
18F
102
}
330
18F
100
AcDbScale
 70
     0
300
1-1/2" = 1'-0"
140
1.5
141
12.0
290
     0
  0
SCALE
  5
1AE
102
{ACAD_REACTORS
330
18F
102
}
330
18F
100
AcDbScale
 70
     0
300
3" = 1'-0"
140
3.0
141
12.0
290
     0
  0
SCALE
  5
1AF
102
{ACAD_REACTORS
330
18F
102
}
330
18F
100
AcDbScale
 70
     0
300
6" = 1'-0"
140
6.0
141
12.0
290
     0
  0
SCALE
  5
1B0
102
{ACAD_REACTORS
330
18F
102
}
330
18F
100
AcDbScale
 70
     0
300
1'-0" = 1'-0"
140
12.0
141
12.0
290
     0
  0
TABLESTYLE
  5
18E
102
{ACAD_XDICTIONARY
360
1D4
102
}
102
{ACAD_REACTORS
330
18D
102
}
330
18D
100
AcDbTableStyle
  3
Standard
 70
     0
 71
     0
 40
0.06
 41
0.06
280
     0
281
     0
  7
STANDARD
140
0.18
170
     2
 62
     0
 63
     7
283
     0
274
    -2
284
     1
 64
     0
275
    -2
285
     1
 65
     0
276
    -2
286
     1
 66
     0
277
    -2
287
     1
 67
     0
278
    -2
288
     1
 68
     0
279
    -2
289
     1
 69
     0
  7
STANDARD
140
0.25
170
     5
 62
     0
 63
     7
283
     0
274
    -2
284
     1
 64
     0
275
    -2
285
     1
 65
     0
276
    -2
286
     1
 66
     0
277
    -2
287
     1
 67
     0
278
    -2
288
     1
 68
     0
279
    -2
289
     1
 69
     0
  7
STANDARD
140
0.18
170
     5
 62
     0
 63
     7
283
     0
274
    -2
284
     1
 64
     0
275
    -2
285
     1
 65
     0
276
    -2
286
     1
 66
     0
277
    -2
287
     1
 67
     0
278
    -2
288
     1
 68
     0
279
    -2
289
     1
 69
     0
  0
VISUALSTYLE
  5
17E
102
{ACAD_XDICTIONARY
360
21C
102
}
102
{ACAD_REACTORS
330
178
102
}
330
178
100
AcDbVisualStyle
  2
2dWireframe
 70
     4
 71
     0
 72
     2
 73
     0
 90
        0
 40
-0.6
 41
-30.0
 62
     5
 63
     7
421
 16777215
 74
     1
 91
        4
 64
     7
 65
   257
 75
     1
175
     1
 42
1.0
 92
        0
 66
   257
 43
1.0
 76
     1
 77
     6
 78
     2
 67
     7
 79
     5
170
     0
171
     0
290
     0
174
     0
 93
        1
 44
0.0
173
     0
291
     0
 45
0.0
1001
ACAD
1000
AcDbSavedByObjectVersion
1070
     0
  0
VISUALSTYLE
  5
180
102
{ACAD_XDICTIONARY
360
220
102
}
102
{ACAD_REACTORS
330
178
102
}
330
178
100
AcDbVisualStyle
  2
3D Hidden
 70
     6
 71
     1
 72
     2
 73
     2
 90
        0
 40
-0.6
 41
-30.0
 62
     5
 63
     7
421
 16777215
 74
     2
 91
        2
 64
     7
 65
   257
 75
     2
175
     1
 42
179.0
 92
        0
 66
   257
 43
1.0
 76
     1
 77
     6
 78
     2
 67
     7
 79
     3
170
     0
171
     0
290
     0
174
     0
 93
        1
 44
0.0
173
     0
291
     0
 45
0.0
1001
ACAD
1000
AcDbSavedByObjectVersion
1070
     0
  0
VISUALSTYLE
  5
17F
102
{ACAD_XDICTIONARY
360
21E
102
}
102
{ACAD_REACTORS
330
178
102
}
330
178
100
AcDbVisualStyle
  2
3dWireframe
 70
     5
 71
     0
 72
     2
 73
     0
 90
        0
 40
-0.6
 41
-30.0
 62
     5
 63
     7
421
 16777215
 74
     1
 91
        4
 64
     7
 65
   257
 75
     1
175
     1
 42
1.0
 92
        0
 66
   257
 43
1.0
 76
     1
 77
     6
 78
     2
 67
     7
 79
     5
170
     0
171
     0
290
     0
174
     0
 93
        1
 44
0.0
173
     0
291
     0
 45
0.0
1001
ACAD
1000
AcDbSavedByObjectVersion
1070
     0
  0
VISUALSTYLE
  5
17D
102
{ACAD_XDICTIONARY
360
21A
102
}
102
{ACAD_REACTORS
330
178
102
}
330
178
100
AcDbVisualStyle
  2
Basic
 70
     7
 71
     1
 72
     0
 73
     1
 90
        0
 40
-0.6
 41
-30.0
 62
     5
 63
     7
421
 16777215
 74
     0
 91
        4
 64
     7
 65
   257
 75
     1
175
     1
 42
1.0
 92
        8
 66
     7
 43
1.0
 76
     1
 77
     6
 78
     2
 67
     7
 79
     5
170
     0
171
     0
290
     0
174
     0
 93
        1
 44
0.0
173
     0
291
     1
 45
0.0
1001
ACAD
1000
AcDbSavedByObjectVersion
1070
     0
  0
VISUALSTYLE
  5
184
102
{ACAD_XDICTIONARY
360
228
102
}
102
{ACAD_REACTORS
330
178
102
}
330
178
100
AcDbVisualStyle
  2
Brighten
 70
    12
 71
     2
 72
     2
 73
     0
 90
        0
 40
-0.6
 41
-30.0
 62
     5
 63
     7
421
 16777215
 74
     1
 91
        4
 64
     7
 65
   257
 75
     1
175
     1
 42
1.0
 92
        8
 66
     7
 43
1.0
 76
     1
 77
     6
 78
     2
 67
     7
 79
     5
170
     0
171
     0
290
     0
174
     0
 93
        1
 44
50.0
173
     0
291
     1
 45
0.0
1001
ACAD
1000
AcDbSavedByObjectVersion
1070
     0
  0
VISUALSTYLE
  5
188
102
{ACAD_XDICTIONARY
360
230
102
}
102
{ACAD_REACTORS
330
178
102
}
330
178
100
AcDbVisualStyle
  2
ColorChange
 70
    16
 71
     2
 72
     2
 73
     3
 90
        0
 40
-0.6
 41
-30.0
 62
     5
 63
     8
421
  8421504
 74
     1
 91
        4
 64
     7
 65
   257
 75
     1
175
     1
 42
1.0
 92
        8
 66
     8
424
  8421504
 43
1.0
 76
     1
 77
     6
 78
     2
 67
     7
 79
     5
170
     0
171
     0
290
     0
174
     0
 93
        1
 44
0.0
173
     0
291
     1
 45
0.0
1001
ACAD
1000
AcDbSavedByObjectVersion
1070
     0
  0
VISUALSTYLE
  5
181
102
{ACAD_XDICTIONARY
360
222
102
}
102
{ACAD_REACTORS
330
178
102
}
330
178
100
AcDbVisualStyle
  2
Conceptual
 70
     9
 71
     3
 72
     2
 73
     0
 90
        0
 40
-0.6
 41
-30.0
 62
     5
 63
     7
421
 16777215
 74
     2
 91
        2
 64
     7
 65
   257
 75
     1
175
     1
 42
179.0
 92
        8
 66
     7
 43
1.0
 76
     1
 77
     6
 78
     2
 67
     7
 79
     3
170
     0
171
     0
290
     0
174
     0
 93
        1
 44
0.0
173
     0
291
     0
 45
0.0
1001
ACAD
1000
AcDbSavedByObjectVersion
1070
     0
  0
VISUALSTYLE
  5
183
102
{ACAD_XDICTIONARY
360
226
102
}
102
{ACAD_REACTORS
330
178
102
}
330
178
100
AcDbVisualStyle
  2
Dim
 70
    11
 71
     2
 72
     2
 73
     0
 90
        0
 40
-0.6
 41
-30.0
 62
     5
 63
     7
421
 16777215
 74
     1
 91
        4
 64
     7
 65
   257
 75
     1
175
     1
 42
1.0
 92
        8
 66
     7
 43
1.0
 76
     1
 77
     6
 78
     2
 67
     7
 79
     5
170
     0
171
     0
290
     0
174
     0
 93
        1
 44
-50.0
173
     0
291
     1
 45
0.0
1001
ACAD
1000
AcDbSavedByObjectVersion
1070
     0
  0
VISUALSTYLE
  5
18B
102
{ACAD_XDICTIONARY
360
236
102
}
102
{ACAD_REACTORS
330
178
102
}
330
178
100
AcDbVisualStyle
  2
EdgeColorOff
 70
    22
 71
     2
 72
     2
 73
     0
 90
        0
 40
-0.6
 41
-30.0
 62
     5
 63
     7
421
 16777215
 74
     1
 91
        4
 64
     7
 65
   257
 75
     1
175
     1
 42
1.0
 92
        8
 66
     7
 43
1.0
 76
     1
 77
     6
 78
     2
 67
     7
 79
     5
170
     0
171
     0
290
     0
174
     0
 93
        1
 44
0.0
173
     0
291
     1
 45
0.0
1001
ACAD
1000
AcDbSavedByObjectVersion
1070
     0
  0
VISUALSTYLE
  5
187
102
{ACAD_XDICTIONARY
360
22E
102
}
102
{ACAD_REACTORS
330
178
102
}
330
178
100
AcDbVisualStyle
  2
Facepattern
 70
    15
 71
     2
 72
     2
 73
     0
 90
        0
 40
-0.6
 41
-30.0
 62
     5
 63
     7
421
 16777215
 74
     1
 91
        4
 64
     7
 65
   257
 75
     1
175
     1
 42
1.0
 92
        8
 66
     7
 43
1.0
 76
     1
 77
     6
 78
     2
 67
     7
 79
     5
170
     0
171
     0
290
     0
174
     0
 93
        1
 44
0.0
173
     0
291
     1
 45
0.0
1001
ACAD
1000
AcDbSavedByObjectVersion
1070
     0
  0
VISUALSTYLE
  5
179
102
{ACAD_XDICTIONARY
360
212
102
}
102
{ACAD_REACTORS
330
178
102
}
330
178
100
AcDbVisualStyle
  2
Flat
 70
     0
 71
     2
 72
     1
 73
     1
 90
        2
 40
-0.6
 41
30.0
 62
     5
 63
     7
421
 16777215
 74
     0
 91
        4
 64
     7
 65
   257
 75
     1
175
     1
 42
1.0
 92
        8
 66
     7
 43
1.0
 76
     1
 77
     6
 78
     2
 67
     7
 79
     5
170
     0
171
     0
290
     0
174
     0
 93
       13
 44
0.0
173
     0
291
     1
 45
0.0
1001
ACAD
1000
AcDbSavedByObjectVersion
1070
     0
  0
VISUALSTYLE
  5
17A
102
{ACAD_XDICTIONARY
360
214
102
}
102
{ACAD_REACTORS
330
178
102
}
330
178
100
AcDbVisualStyle
  2
FlatWithEdges
 70
     1
 71
     2
 72
     1
 73
     1
 90
        2
 40
-0.6
 41
30.0
 62
     5
 63
     7
421
 16777215
 74
     1
 91
        4
 64
     7
 65
   257
 75
     1
175
     1
 42
1.0
 92
        0
 66
   257
 43
1.0
 76
     1
 77
     6
 78
     2
 67
     7
 79
     5
170
     0
171
     0
290
     0
174
     0
 93
       13
 44
0.0
173
     0
291
     1
 45
0.0
1001
ACAD
1000
AcDbSavedByObjectVersion
1070
     0
  0
VISUALSTYLE
  5
17B
102
{ACAD_XDICTIONARY
360
216
102
}
102
{ACAD_REACTORS
330
178
102
}
330
178
100
AcDbVisualStyle
  2
Gouraud
 70
     2
 71
     2
 72
     2
 73
     1
 90
        2
 40
-0.6
 41
30.0
 62
     5
 63
     7
421
 16777215
 74
     0
 91
        4
 64
     7
 65
   257
 75
     1
175
     1
 42
1.0
 92
        0
 66
     7
 43
1.0
 76
     1
 77
     6
 78
     2
 67
     7
 79
     5
170
     0
171
     0
290
     0
174
     0
 93
       13
 44
0.0
173
     0
291
     1
 45
0.0
1001
ACAD
1000
AcDbSavedByObjectVersion
1070
     0
  0
VISUALSTYLE
  5
17C
102
{ACAD_XDICTIONARY
360
218
102
}
102
{ACAD_REACTORS
330
178
102
}
330
178
100
AcDbVisualStyle
  2
GouraudWithEdges
 70
     3
 71
     2
 72
     2
 73
     1
 90
        2
 40
-0.6
 41
30.0
 62
     5
 63
     7
421
 16777215
 74
     1
 91
        4
 64
     7
 65
   257
 75
     1
175
     1
 42
1.0
 92
        0
 66
   257
 43
1.0
 76
     1
 77
     6
 78
     2
 67
     7
 79
     5
170
     0
171
     0
290
     0
174
     0
 93
       13
 44
0.0
173
     0
291
     1
 45
0.0
1001
ACAD
1000
AcDbSavedByObjectVersion
1070
     0
  0
VISUALSTYLE
  5
189
102
{ACAD_XDICTIONARY
360
232
102
}
102
{ACAD_REACTORS
330
178
102
}
330
178
100
AcDbVisualStyle
  2
JitterOff
 70
    20
 71
     2
 72
     2
 73
     0
 90
        0
 40
-0.6
 41
-30.0
 62
     5
 63
     7
421
 16777215
 74
     1
 91
        4
 64
     7
 65
   257
 75
     1
175
     1
 42
1.0
 92
       10
 66
     7
 43
1.0
 76
     1
 77
     6
 78
     2
 67
     7
 79
     5
170
     0
171
     0
290
     0
174
     0
 93
        1
 44
0.0
173
     0
291
     1
 45
0.0
1001
ACAD
1000
AcDbSavedByObjectVersion
1070
     0
  0
VISUALSTYLE
  5
186
102
{ACAD_XDICTIONARY
360
22C
102
}
102
{ACAD_REACTORS
330
178
102
}
330
178
100
AcDbVisualStyle
  2
Linepattern
 70
    14
 71
     2
 72
     2
 73
     0
 90
        0
 40
-0.6
 41
-30.0
 62
     5
 63
     7
421
 16777215
 74
     1
 91
        4
 64
     7
 65
   257
 75
     7
175
     7
 42
1.0
 92
        8
 66
     7
 43
1.0
 76
     1
 77
     6
 78
     2
 67
     7
 79
     5
170
     0
171
     0
290
     0
174
     0
 93
        1
 44
0.0
173
     0
291
     1
 45
0.0
1001
ACAD
1000
AcDbSavedByObjectVersion
1070
     0
  0
VISUALSTYLE
  5
18A
102
{ACAD_XDICTIONARY
360
234
102
}
102
{ACAD_REACTORS
330
178
102
}
330
178
100
AcDbVisualStyle
  2
OverhangOff
 70
    21
 71
     2
 72
     2
 73
     0
 90
        0
 40
-0.6
 41
-30.0
 62
     5
 63
     7
421
 16777215
 74
     1
 91
        4
 64
     7
 65
   257
 75
     1
175
     1
 42
1.0
 92
        9
 66
     7
 43
1.0
 76
     1
 77
     6
 78
     2
 67
     7
 79
     5
170
     0
171
     0
290
     0
174
     0
 93
        1
 44
0.0
173
     0
291
     1
 45
0.0
1001
ACAD
1000
AcDbSavedByObjectVersion
1070
     0
  0
VISUALSTYLE
  5
182
102
{ACAD_XDICTIONARY
360
224
102
}
102
{ACAD_REACTORS
330
178
102
}
330
178
100
AcDbVisualStyle
  2
Realistic
 70
     8
 71
     2
 72
     2
 73
     0
 90
        0
 40
-0.6
 41
-30.0
 62
     5
 63
     7
421
 16777215
 74
     1
 91
        0
 64
     7
 65
   257
 75
     1
175
     1
 42
1.0
 92
        8
 66
     8
424
  7895160
 43
1.0
 76
     1
 77
     6
 78
     2
 67
     7
 79
     5
170
     0
171
     0
290
     0
174
     0
 93
       13
 44
0.0
173
     0
291
     0
 45
0.0
1001
ACAD
1000
AcDbSavedByObjectVersion
1070
     0
  0
VISUALSTYLE
  5
185
102
{ACAD_XDICTIONARY
360
22A
102
}
102
{ACAD_REACTORS
330
178
102
}
330
178
100
AcDbVisualStyle
  2
Thicken
 70
    13
 71
     2
 72
     2
 73
     0
 90
        0
 40
-0.6
 41
-30.0
 62
     5
 63
     7
421
 16777215
 74
     1
 91
        4
 64
     7
 65
   257
 75
     1
175
     1
 42
1.0
 92
       12
 66
     7
 43
1.0
 76
     1
 77
     6
 78
     2
 67
     7
 79
     5
170
     0
171
     0
290
     0
174
     0
 93
        1
 44
0.0
173
     0
291
     1
 45
0.0
1001
ACAD
1000
AcDbSavedByObjectVersion
1070
     0
  0
DICTIONARYVAR
  5
202
102
{ACAD_REACTORS
330
1FE
102
}
330
1FE
100
DictionaryVariables
280
     0
  1
1:1
  0
DICTIONARYVAR
  5
200
102
{ACAD_REACTORS
330
1FE
102
}
330
1FE
100
DictionaryVariables
280
     0
  1
STANDARD
  0
DICTIONARYVAR
  5
1FF
102
{ACAD_REACTORS
330
1FE
102
}
330
1FE
100
DictionaryVariables
280
     0
  1
STANDARD
  0
DICTIONARYVAR
  5
204
102
{ACAD_REACTORS
330
1FE
102
}
330
1FE
100
DictionaryVariables
280
     0
  1
1
  0
DICTIONARYVAR
  5
205
102
{ACAD_REACTORS
330
1FE
102
}
330
1FE
100
DictionaryVariables
280
     0
  1
15
  0
DICTIONARYVAR
  5
203
102
{ACAD_REACTORS
330
1FE
102
}
330
1FE
100
DictionaryVariables
280
     0
  1
0
  0
DICTIONARYVAR
  5
201
102
{ACAD_REACTORS
330
1FE
102
}
330
1FE
100
DictionaryVariables
280
     0
  1
0
  0
DICTIONARYVAR
  5
20C
102
{ACAD_REACTORS
330
1FE
102
}
330
1FE
100
DictionaryVariables
280
     0
  1
2
  0
DICTIONARY
  5
169
330
168
100
AcDbDictionary
280
     1
281
     1
  3
ACAD_XREC_ROUNDTRIP
360
210
  3
BUMPTILE
360
16B
  3
DIFFUSETILE
360
16A
  3
OPACITYTILE
360
16E
  3
REFLECTIONTILE
360
16D
  3
REFRACTIONTILE
360
16F
  3
SPECULARTILE
360
16C
  0
DICTIONARY
  5
161
330
160
100
AcDbDictionary
280
     1
281
     1
  3
ACAD_XREC_ROUNDTRIP
360
20F
  3
BUMPTILE
360
163
  3
DIFFUSETILE
360
162
  3
OPACITYTILE
360
166
  3
REFLECTIONTILE
360
165
  3
REFRACTIONTILE
360
167
  3
SPECULARTILE
360
164
  0
DICTIONARY
  5
171
330
170
100
AcDbDictionary
280
     1
281
     1
  3
ACAD_XREC_ROUNDTRIP
360
211
  3
BUMPTILE
360
173
  3
DIFFUSETILE
360
172
  3
OPACITYTILE
360
176
  3
REFLECTIONTILE
360
175
  3
REFRACTIONTILE
360
177
  3
SPECULARTILE
360
174
  0
DICTIONARY
  5
1D4
330
18E
100
AcDbDictionary
280
     1
281
     1
  3
ACAD_ROUNDTRIP_2008_TABLESTYLE_CELLSTYLEMAP
360
20D
  3
ACAD_XREC_ROUNDTRIP
360
238
  0
DICTIONARY
  5
21C
330
17E
100
AcDbDictionary
280
     1
281
     1
  3
ACAD_XREC_ROUNDTRIP
360
21D
  0
DICTIONARY
  5
220
330
180
100
AcDbDictionary
280
     1
281
     1
  3
ACAD_XREC_ROUNDTRIP
360
221
  0
DICTIONARY
  5
21E
330
17F
100
AcDbDictionary
280
     1
281
     1
  3
ACAD_XREC_ROUNDTRIP
360
21F
  0
DICTIONARY
  5
21A
330
17D
100
AcDbDictionary
280
     1
281
     1
  3
ACAD_XREC_ROUNDTRIP
360
21B
  0
DICTIONARY
  5
228
330
184
100
AcDbDictionary
280
     1
281
     1
  3
ACAD_XREC_ROUNDTRIP
360
229
  0
DICTIONARY
  5
230
330
188
100
AcDbDictionary
280
     1
281
     1
  3
ACAD_XREC_ROUNDTRIP
360
231
  0
DICTIONARY
  5
222
330
181
100
AcDbDictionary
280
     1
281
     1
  3
ACAD_XREC_ROUNDTRIP
360
223
  0
DICTIONARY
  5
226
330
183
100
AcDbDictionary
280
     1
281
     1
  3
ACAD_XREC_ROUNDTRIP
360
227
  0
DICTIONARY
  5
236
330
18B
100
AcDbDictionary
280
     1
281
     1
  3
ACAD_XREC_ROUNDTRIP
360
237
  0
DICTIONARY
  5
22E
330
187
100
AcDbDictionary
280
     1
281
     1
  3
ACAD_XREC_ROUNDTRIP
360
22F
  0
DICTIONARY
  5
212
330
179
100
AcDbDictionary
280
     1
281
     1
  3
ACAD_XREC_ROUNDTRIP
360
213
  0
DICTIONARY
  5
214
330
17A
100
AcDbDictionary
280
     1
281
     1
  3
ACAD_XREC_ROUNDTRIP
360
215
  0
DICTIONARY
  5
216
330
17B
100
AcDbDictionary
280
     1
281
     1
  3
ACAD_XREC_ROUNDTRIP
360
217
  0
DICTIONARY
  5
218
330
17C
100
AcDbDictionary
280
     1
281
     1
  3
ACAD_XREC_ROUNDTRIP
360
219
  0
DICTIONARY
  5
232
330
189
100
AcDbDictionary
280
     1
281
     1
  3
ACAD_XREC_ROUNDTRIP
360
233
  0
DICTIONARY
  5
22C
330
186
100
AcDbDictionary
280
     1
281
     1
  3
ACAD_XREC_ROUNDTRIP
360
22D
  0
DICTIONARY
  5
234
330
18A
100
AcDbDictionary
280
     1
281
     1
  3
ACAD_XREC_ROUNDTRIP
360
235
  0
DICTIONARY
  5
224
330
182
100
AcDbDictionary
280
     1
281
     1
  3
ACAD_XREC_ROUNDTRIP
360
225
  0
DICTIONARY
  5
22A
330
185
100
AcDbDictionary
280
     1
281
     1
  3
ACAD_XREC_ROUNDTRIP
360
22B
  0
XRECORD
  5
210
102
{ACAD_REACTORS
330
169
102
}
330
169
100
AcDbXrecord
280
     1
102
MATERIAL
148
0.0
149
0.0
149
0.0
 93
        0
 94
      127
282
     0
 72
     0
 77
     0
171
     0
175
     0
179
     0
273
     0
  0
XRECORD
  5
16B
102
{ACAD_REACTORS
330
169
102
}
330
169
100
AcDbXrecord
280
     1
270
     1
271
     1
  0
XRECORD
  5
16A
102
{ACAD_REACTORS
330
169
102
}
330
169
100
AcDbXrecord
280
     1
270
     1
271
     1
  0
XRECORD
  5
16E
102
{ACAD_REACTORS
330
169
102
}
330
169
100
AcDbXrecord
280
     1
270
     1
271
     1
  0
XRECORD
  5
16D
102
{ACAD_REACTORS
330
169
102
}
330
169
100
AcDbXrecord
280
     1
270
     1
271
     1
  0
XRECORD
  5
16F
102
{ACAD_REACTORS
330
169
102
}
330
169
100
AcDbXrecord
280
     1
270
     1
271
     1
  0
XRECORD
  5
16C
102
{ACAD_REACTORS
330
169
102
}
330
169
100
AcDbXrecord
280
     1
270
     1
271
     1
  0
XRECORD
  5
20F
102
{ACAD_REACTORS
330
161
102
}
330
161
100
AcDbXrecord
280
     1
102
MATERIAL
148
0.0
149
0.0
149
0.0
 93
        0
 94
      127
282
     0
 72
     0
 77
     0
171
     0
175
     0
179
     0
273
     0
  0
XRECORD
  5
163
102
{ACAD_REACTORS
330
161
102
}
330
161
100
AcDbXrecord
280
     1
270
     1
271
     1
  0
XRECORD
  5
162
102
{ACAD_REACTORS
330
161
102
}
330
161
100
AcDbXrecord
280
     1
270
     1
271
     1
  0
XRECORD
  5
166
102
{ACAD_REACTORS
330
161
102
}
330
161
100
AcDbXrecord
280
     1
270
     1
271
     1
  0
XRECORD
  5
165
102
{ACAD_REACTORS
330
161
102
}
330
161
100
AcDbXrecord
280
     1
270
     1
271
     1
  0
XRECORD
  5
167
102
{ACAD_REACTORS
330
161
102
}
330
161
100
AcDbXrecord
280
     1
270
     1
271
     1
  0
XRECORD
  5
164
102
{ACAD_REACTORS
330
161
102
}
330
161
100
AcDbXrecord
280
     1
270
     1
271
     1
  0
XRECORD
  5
211
102
{ACAD_REACTORS
330
171
102
}
330
171
100
AcDbXrecord
280
     1
102
MATERIAL
148
0.0
149
0.0
149
0.0
 93
        0
 94
      127
282
     0
 72
     0
 77
     0
171
     0
175
     0
179
     0
273
     0
  0
XRECORD
  5
173
102
{ACAD_REACTORS
330
171
102
}
330
171
100
AcDbXrecord
280
     1
270
     1
271
     1
  0
XRECORD
  5
172
102
{ACAD_REACTORS
330
171
102
}
330
171
100
AcDbXrecord
280
     1
270
     1
271
     1
  0
XRECORD
  5
176
102
{ACAD_REACTORS
330
171
102
}
330
171
100
AcDbXrecord
280
     1
270
     1
271
     1
  0
XRECORD
  5
175
102
{ACAD_REACTORS
330
171
102
}
330
171
100
AcDbXrecord
280
     1
270
     1
271
     1
  0
XRECORD
  5
177
102
{ACAD_REACTORS
330
171
102
}
330
171
100
AcDbXrecord
280
     1
270
     1
271
     1
  0
XRECORD
  5
174
102
{ACAD_REACTORS
330
171
102
}
330
171
100
AcDbXrecord
280
     1
270
     1
271
     1
  0
CELLSTYLEMAP
  5
20D
102
{ACAD_REACTORS
330
1D4
102
}
330
1D4
100
AcDbCellStyleMap
 90
        3
300
CELLSTYLE
  1
TABLEFORMAT_BEGIN
 90
        5
170
     1
 91
        0
 92
    32768
 62
   257
 93
        1
300
CONTENTFORMAT
  1
CONTENTFORMAT_BEGIN
 90
        0
 91
        0
 92
      512
 93
        0
300

 40
0.0
140
1.0
 94
        5
 62
     0
340
16
144
0.25
309
CONTENTFORMAT_END
171
     0
 94
        0
309
TABLEFORMAT_END
  1
CELLSTYLE_BEGIN
 90
        1
 91
        1
300
_TITLE
309
CELLSTYLE_END
300
CELLSTYLE
  1
TABLEFORMAT_BEGIN
 90
        5
170
     1
 91
        0
 92
        0
 62
   257
 93
        1
300
CONTENTFORMAT
  1
CONTENTFORMAT_BEGIN
 90
        0
 91
        0
 92
      512
 93
        0
300

 40
0.0
140
1.0
 94
        5
 62
     0
340
16
144
0.18
309
CONTENTFORMAT_END
171
     0
 94
        0
309
TABLEFORMAT_END
  1
CELLSTYLE_BEGIN
 90
        2
 91
        1
300
_HEADER
309
CELLSTYLE_END
300
CELLSTYLE
  1
TABLEFORMAT_BEGIN
 90
        5
170
     1
 91
        0
 92
        0
 62
   257
 93
        1
300
CONTENTFORMAT
  1
CONTENTFORMAT_BEGIN
 90
        0
 91
        0
 92
      512
 93
        0
300

 40
0.0
140
1.0
 94
        2
 62
     0
340
16
144
0.18
309
CONTENTFORMAT_END
171
     0
 94
        0
309
TABLEFORMAT_END
  1
CELLSTYLE_BEGIN
 90
        3
 91
        2
300
_DATA
309
CELLSTYLE_END
  0
XRECORD
  5
238
102
{ACAD_REACTORS
330
1D4
102
}
330
1D4
100
AcDbXrecord
280
     1
102
ACAD_ROUNDTRIP_PRE2007_TABLESTYLE
 90
      512
 91
        0
  1

 92
      512
 93
        0
  2

 94
      512
 95
        0
  3

  0
XRECORD
  5
21D
102
{ACAD_REACTORS
330
21C
102
}
330
21C
100
AcDbXrecord
280
     1
102
RTVSPropertyOp0
 70
     1
102
RTVSPropertyOp1
 70
     1
102
RTVSPropertyOp2
 70
     1
102
RTVSPropertyOp3
 70
     1
102
RTVSPropertyOp4
 70
     1
102
RTVSPropertyOp5
 70
     1
102
RTVSPropertyOp6
 70
     1
102
RTVSPropertyOp7
 70
     1
102
RTVSPropertyOp8
 70
     1
102
RTVSPropertyOp9
 70
     1
102
RTVSPropertyOp10
 70
     1
102
RTVSPropertyOp11
 70
     1
102
RTVSPropertyOp12
 70
     1
102
RTVSPropertyOp13
 70
     1
102
RTVSPropertyOp14
 70
     1
102
RTVSPropertyOp15
 70
     1
102
RTVSPropertyOp16
 70
     1
102
RTVSPropertyOp17
 70
     1
102
RTVSPropertyOp18
 70
     1
102
RTVSPropertyOp19
 70
     1
102
RTVSPropertyOp20
 70
     1
102
RTVSPropertyOp21
 70
     1
102
RTVSPropertyOp22
 70
     1
102
RTVSPropertyOp23
 70
     1
102
RTVSPropertyOp24
 70
     1
102
RTVSPropertyOp25
 70
     1
102
RTVSPropertyOp26
 70
     1
102
RTVSPropertyOp27
 70
     1
  0
XRECORD
  5
221
102
{ACAD_REACTORS
330
220
102
}
330
220
100
AcDbXrecord
280
     1
102
RTVSPropertyOp0
 70
     1
102
RTVSPropertyOp1
 70
     1
102
RTVSPropertyOp2
 70
     1
102
RTVSPropertyOp3
 70
     1
102
RTVSPropertyOp4
 70
     1
102
RTVSPropertyOp5
 70
     1
102
RTVSPropertyOp6
 70
     1
102
RTVSPropertyOp7
 70
     1
102
RTVSPropertyOp8
 70
     1
102
RTVSPropertyOp9
 70
     1
102
RTVSPropertyOp10
 70
     1
102
RTVSPropertyOp11
 70
     1
102
RTVSPropertyOp12
 70
     1
102
RTVSPropertyOp13
 70
     1
102
RTVSPropertyOp14
 70
     1
102
RTVSPropertyOp15
 70
     1
102
RTVSPropertyOp16
 70
     1
102
RTVSPropertyOp17
 70
     1
102
RTVSPropertyOp18
 70
     1
102
RTVSPropertyOp19
 70
     1
102
RTVSPropertyOp20
 70
     1
102
RTVSPropertyOp21
 70
     1
102
RTVSPropertyOp22
 70
     1
102
RTVSPropertyOp23
 70
     1
102
RTVSPropertyOp24
 70
     1
102
RTVSPropertyOp25
 70
     1
102
RTVSPropertyOp26
 70
     1
102
RTVSPropertyOp27
 70
     1
  0
XRECORD
  5
21F
102
{ACAD_REACTORS
330
21E
102
}
330
21E
100
AcDbXrecord
280
     1
102
RTVSPropertyOp0
 70
     1
102
RTVSPropertyOp1
 70
     1
102
RTVSPropertyOp2
 70
     1
102
RTVSPropertyOp3
 70
     1
102
RTVSPropertyOp4
 70
     1
102
RTVSPropertyOp5
 70
     1
102
RTVSPropertyOp6
 70
     1
102
RTVSPropertyOp7
 70
     1
102
RTVSPropertyOp8
 70
     1
102
RTVSPropertyOp9
 70
     1
102
RTVSPropertyOp10
 70
     1
102
RTVSPropertyOp11
 70
     1
102
RTVSPropertyOp12
 70
     1
102
RTVSPropertyOp13
 70
     1
102
RTVSPropertyOp14
 70
     1
102
RTVSPropertyOp15
 70
     1
102
RTVSPropertyOp16
 70
     1
102
RTVSPropertyOp17
 70
     1
102
RTVSPropertyOp18
 70
     1
102
RTVSPropertyOp19
 70
     1
102
RTVSPropertyOp20
 70
     1
102
RTVSPropertyOp21
 70
     1
102
RTVSPropertyOp22
 70
     1
102
RTVSPropertyOp23
 70
     1
102
RTVSPropertyOp24
 70
     1
102
RTVSPropertyOp25
 70
     1
102
RTVSPropertyOp26
 70
     1
102
RTVSPropertyOp27
 70
     1
  0
XRECORD
  5
21B
102
{ACAD_REACTORS
330
21A
102
}
330
21A
100
AcDbXrecord
280
     1
102
RTVSPropertyOp0
 70
     1
102
RTVSPropertyOp1
 70
     1
102
RTVSPropertyOp2
 70
     1
102
RTVSPropertyOp3
 70
     1
102
RTVSPropertyOp4
 70
     1
102
RTVSPropertyOp5
 70
     1
102
RTVSPropertyOp6
 70
     1
102
RTVSPropertyOp7
 70
     1
102
RTVSPropertyOp8
 70
     1
102
RTVSPropertyOp9
 70
     1
102
RTVSPropertyOp10
 70
     1
102
RTVSPropertyOp11
 70
     1
102
RTVSPropertyOp12
 70
     1
102
RTVSPropertyOp13
 70
     1
102
RTVSPropertyOp14
 70
     1
102
RTVSPropertyOp15
 70
     1
102
RTVSPropertyOp16
 70
     1
102
RTVSPropertyOp17
 70
     1
102
RTVSPropertyOp18
 70
     1
102
RTVSPropertyOp19
 70
     1
102
RTVSPropertyOp20
 70
     1
102
RTVSPropertyOp21
 70
     1
102
RTVSPropertyOp22
 70
     1
102
RTVSPropertyOp23
 70
     1
102
RTVSPropertyOp24
 70
     1
102
RTVSPropertyOp25
 70
     1
102
RTVSPropertyOp26
 70
     1
102
RTVSPropertyOp27
 70
     1
  0
XRECORD
  5
229
102
{ACAD_REACTORS
330
228
102
}
330
228
100
AcDbXrecord
280
     1
102
RTVSPropertyOp0
 70
     1
102
RTVSPropertyOp1
 70
     1
102
RTVSPropertyOp2
 70
     1
102
RTVSPropertyOp3
 70
     1
102
RTVSPropertyOp4
 70
     1
102
RTVSPropertyOp5
 70
     1
102
RTVSPropertyOp6
 70
     1
102
RTVSPropertyOp7
 70
     1
102
RTVSPropertyOp8
 70
     1
102
RTVSPropertyOp9
 70
     1
102
RTVSPropertyOp10
 70
     1
102
RTVSPropertyOp11
 70
     1
102
RTVSPropertyOp12
 70
     1
102
RTVSPropertyOp13
 70
     1
102
RTVSPropertyOp14
 70
     1
102
RTVSPropertyOp15
 70
     1
102
RTVSPropertyOp16
 70
     1
102
RTVSPropertyOp17
 70
     1
102
RTVSPropertyOp18
 70
     1
102
RTVSPropertyOp19
 70
     1
102
RTVSPropertyOp20
 70
     1
102
RTVSPropertyOp21
 70
     1
102
RTVSPropertyOp22
 70
     1
102
RTVSPropertyOp23
 70
     1
102
RTVSPropertyOp24
 70
     1
102
RTVSPropertyOp25
 70
     1
102
RTVSPropertyOp26
 70
     1
102
RTVSPropertyOp27
 70
     1
  0
XRECORD
  5
231
102
{ACAD_REACTORS
330
230
102
}
330
230
100
AcDbXrecord
280
     1
102
RTVSPropertyOp0
 70
     1
102
RTVSPropertyOp1
 70
     1
102
RTVSPropertyOp2
 70
     1
102
RTVSPropertyOp3
 70
     1
102
RTVSPropertyOp4
 70
     1
102
RTVSPropertyOp5
 70
     1
102
RTVSPropertyOp6
 70
     1
102
RTVSPropertyOp7
 70
     1
102
RTVSPropertyOp8
 70
     1
102
RTVSPropertyOp9
 70
     1
102
RTVSPropertyOp10
 70
     1
102
RTVSPropertyOp11
 70
     1
102
RTVSPropertyOp12
 70
     1
102
RTVSPropertyOp13
 70
     1
102
RTVSPropertyOp14
 70
     1
102
RTVSPropertyOp15
 70
     1
102
RTVSPropertyOp16
 70
     1
102
RTVSPropertyOp17
 70
     1
102
RTVSPropertyOp18
 70
     1
102
RTVSPropertyOp19
 70
     1
102
RTVSPropertyOp20
 70
     1
102
RTVSPropertyOp21
 70
     1
102
RTVSPropertyOp22
 70
     1
102
RTVSPropertyOp23
 70
     1
102
RTVSPropertyOp24
 70
     1
102
RTVSPropertyOp25
 70
     1
102
RTVSPropertyOp26
 70
     1
102
RTVSPropertyOp27
 70
     1
  0
XRECORD
  5
223
102
{ACAD_REACTORS
330
222
102
}
330
222
100
AcDbXrecord
280
     1
102
RTVSPropertyOp0
 70
     1
102
RTVSPropertyOp1
 70
     1
102
RTVSPropertyOp2
 70
     1
102
RTVSPropertyOp3
 70
     1
102
RTVSPropertyOp4
 70
     1
102
RTVSPropertyOp5
 70
     1
102
RTVSPropertyOp6
 70
     1
102
RTVSPropertyOp7
 70
     1
102
RTVSPropertyOp8
 70
     1
102
RTVSPropertyOp9
 70
     1
102
RTVSPropertyOp10
 70
     1
102
RTVSPropertyOp11
 70
     1
102
RTVSPropertyOp12
 70
     1
102
RTVSPropertyOp13
 70
     1
102
RTVSPropertyOp14
 70
     1
102
RTVSPropertyOp15
 70
     1
102
RTVSPropertyOp16
 70
     1
102
RTVSPropertyOp17
 70
     1
102
RTVSPropertyOp18
 70
     1
102
RTVSPropertyOp19
 70
     1
102
RTVSPropertyOp20
 70
     1
102
RTVSPropertyOp21
 70
     1
102
RTVSPropertyOp22
 70
     1
102
RTVSPropertyOp23
 70
     1
102
RTVSPropertyOp24
 70
     1
102
RTVSPropertyOp25
 70
     1
102
RTVSPropertyOp26
 70
     1
102
RTVSPropertyOp27
 70
     1
  0
XRECORD
  5
227
102
{ACAD_REACTORS
330
226
102
}
330
226
100
AcDbXrecord
280
     1
102
RTVSPropertyOp0
 70
     1
102
RTVSPropertyOp1
 70
     1
102
RTVSPropertyOp2
 70
     1
102
RTVSPropertyOp3
 70
     1
102
RTVSPropertyOp4
 70
     1
102
RTVSPropertyOp5
 70
     1
102
RTVSPropertyOp6
 70
     1
102
RTVSPropertyOp7
 70
     1
102
RTVSPropertyOp8
 70
     1
102
RTVSPropertyOp9
 70
     1
102
RTVSPropertyOp10
 70
     1
102
RTVSPropertyOp11
 70
     1
102
RTVSPropertyOp12
 70
     1
102
RTVSPropertyOp13
 70
     1
102
RTVSPropertyOp14
 70
     1
102
RTVSPropertyOp15
 70
     1
102
RTVSPropertyOp16
 70
     1
102
RTVSPropertyOp17
 70
     1
102
RTVSPropertyOp18
 70
     1
102
RTVSPropertyOp19
 70
     1
102
RTVSPropertyOp20
 70
     1
102
RTVSPropertyOp21
 70
     1
102
RTVSPropertyOp22
 70
     1
102
RTVSPropertyOp23
 70
     1
102
RTVSPropertyOp24
 70
     1
102
RTVSPropertyOp25
 70
     1
102
RTVSPropertyOp26
 70
     1
102
RTVSPropertyOp27
 70
     1
  0
XRECORD
  5
237
102
{ACAD_REACTORS
330
236
102
}
330
236
100
AcDbXrecord
280
     1
102
RTVSPropertyOp0
 70
     0
102
RTVSPropertyOp1
 70
     0
102
RTVSPropertyOp2
 70
     0
102
RTVSPropertyOp3
 70
     0
102
RTVSPropertyOp4
 70
     0
102
RTVSPropertyOp5
 70
     0
102
RTVSPropertyOp6
 70
     0
102
RTVSPropertyOp7
 70
     0
102
RTVSPropertyOp8
 70
     0
102
RTVSPropertyOp9
 70
     0
102
RTVSPropertyOp10
 70
     0
102
RTVSPropertyOp11
 70
     0
102
RTVSPropertyOp12
 70
     0
102
RTVSPropertyOp13
 70
     0
102
RTVSPropertyOp14
 70
     2
102
RTVSPropertyOp15
 70
     0
102
RTVSPropertyOp16
 70
     0
102
RTVSPropertyOp17
 70
     0
102
RTVSPropertyOp18
 70
     0
102
RTVSPropertyOp19
 70
     0
102
RTVSPropertyOp20
 70
     0
102
RTVSPropertyOp21
 70
     0
102
RTVSPropertyOp22
 70
     0
102
RTVSPropertyOp23
 70
     0
102
RTVSPropertyOp24
 70
     0
102
RTVSPropertyOp25
 70
     0
102
RTVSPropertyOp26
 70
     0
102
RTVSPropertyOp27
 70
     0
  0
XRECORD
  5
22F
102
{ACAD_REACTORS
330
22E
102
}
330
22E
100
AcDbXrecord
280
     1
102
RTVSPropertyOp0
 70
     1
102
RTVSPropertyOp1
 70
     1
102
RTVSPropertyOp2
 70
     1
102
RTVSPropertyOp3
 70
     1
102
RTVSPropertyOp4
 70
     1
102
RTVSPropertyOp5
 70
     1
102
RTVSPropertyOp6
 70
     1
102
RTVSPropertyOp7
 70
     1
102
RTVSPropertyOp8
 70
     1
102
RTVSPropertyOp9
 70
     1
102
RTVSPropertyOp10
 70
     1
102
RTVSPropertyOp11
 70
     1
102
RTVSPropertyOp12
 70
     1
102
RTVSPropertyOp13
 70
     1
102
RTVSPropertyOp14
 70
     1
102
RTVSPropertyOp15
 70
     1
102
RTVSPropertyOp16
 70
     1
102
RTVSPropertyOp17
 70
     1
102
RTVSPropertyOp18
 70
     1
102
RTVSPropertyOp19
 70
     1
102
RTVSPropertyOp20
 70
     1
102
RTVSPropertyOp21
 70
     1
102
RTVSPropertyOp22
 70
     1
102
RTVSPropertyOp23
 70
     1
102
RTVSPropertyOp24
 70
     1
102
RTVSPropertyOp25
 70
     1
102
RTVSPropertyOp26
 70
     1
102
RTVSPropertyOp27
 70
     1
  0
XRECORD
  5
213
102
{ACAD_REACTORS
330
212
102
}
330
212
100
AcDbXrecord
280
     1
102
RTVSPropertyOp0
 70
     1
102
RTVSPropertyOp1
 70
     1
102
RTVSPropertyOp2
 70
     1
102
RTVSPropertyOp3
 70
     1
102
RTVSPropertyOp4
 70
     1
102
RTVSPropertyOp5
 70
     1
102
RTVSPropertyOp6
 70
     1
102
RTVSPropertyOp7
 70
     1
102
RTVSPropertyOp8
 70
     1
102
RTVSPropertyOp9
 70
     1
102
RTVSPropertyOp10
 70
     1
102
RTVSPropertyOp11
 70
     1
102
RTVSPropertyOp12
 70
     1
102
RTVSPropertyOp13
 70
     1
102
RTVSPropertyOp14
 70
     1
102
RTVSPropertyOp15
 70
     1
102
RTVSPropertyOp16
 70
     1
102
RTVSPropertyOp17
 70
     1
102
RTVSPropertyOp18
 70
     1
102
RTVSPropertyOp19
 70
     1
102
RTVSPropertyOp20
 70
     1
102
RTVSPropertyOp21
 70
     1
102
RTVSPropertyOp22
 70
     1
102
RTVSPropertyOp23
 70
     1
102
RTVSPropertyOp24
 70
     1
102
RTVSPropertyOp25
 70
     1
102
RTVSPropertyOp26
 70
     1
102
RTVSPropertyOp27
 70
     1
  0
XRECORD
  5
215
102
{ACAD_REACTORS
330
214
102
}
330
214
100
AcDbXrecord
280
     1
102
RTVSPropertyOp0
 70
     1
102
RTVSPropertyOp1
 70
     1
102
RTVSPropertyOp2
 70
     1
102
RTVSPropertyOp3
 70
     1
102
RTVSPropertyOp4
 70
     1
102
RTVSPropertyOp5
 70
     1
102
RTVSPropertyOp6
 70
     1
102
RTVSPropertyOp7
 70
     1
102
RTVSPropertyOp8
 70
     1
102
RTVSPropertyOp9
 70
     1
102
RTVSPropertyOp10
 70
     1
102
RTVSPropertyOp11
 70
     1
102
RTVSPropertyOp12
 70
     1
102
RTVSPropertyOp13
 70
     1
102
RTVSPropertyOp14
 70
     1
102
RTVSPropertyOp15
 70
     1
102
RTVSPropertyOp16
 70
     1
102
RTVSPropertyOp17
 70
     1
102
RTVSPropertyOp18
 70
     1
102
RTVSPropertyOp19
 70
     1
102
RTVSPropertyOp20
 70
     1
102
RTVSPropertyOp21
 70
     1
102
RTVSPropertyOp22
 70
     1
102
RTVSPropertyOp23
 70
     1
102
RTVSPropertyOp24
 70
     1
102
RTVSPropertyOp25
 70
     1
102
RTVSPropertyOp26
 70
     1
102
RTVSPropertyOp27
 70
     1
  0
XRECORD
  5
217
102
{ACAD_REACTORS
330
216
102
}
330
216
100
AcDbXrecord
280
     1
102
RTVSPropertyOp0
 70
     1
102
RTVSPropertyOp1
 70
     1
102
RTVSPropertyOp2
 70
     1
102
RTVSPropertyOp3
 70
     1
102
RTVSPropertyOp4
 70
     1
102
RTVSPropertyOp5
 70
     1
102
RTVSPropertyOp6
 70
     1
102
RTVSPropertyOp7
 70
     1
102
RTVSPropertyOp8
 70
     1
102
RTVSPropertyOp9
 70
     1
102
RTVSPropertyOp10
 70
     1
102
RTVSPropertyOp11
 70
     1
102
RTVSPropertyOp12
 70
     1
102
RTVSPropertyOp13
 70
     1
102
RTVSPropertyOp14
 70
     1
102
RTVSPropertyOp15
 70
     1
102
RTVSPropertyOp16
 70
     1
102
RTVSPropertyOp17
 70
     1
102
RTVSPropertyOp18
 70
     1
102
RTVSPropertyOp19
 70
     1
102
RTVSPropertyOp20
 70
     1
102
RTVSPropertyOp21
 70
     1
102
RTVSPropertyOp22
 70
     1
102
RTVSPropertyOp23
 70
     1
102
RTVSPropertyOp24
 70
     1
102
RTVSPropertyOp25
 70
     1
102
RTVSPropertyOp26
 70
     1
102
RTVSPropertyOp27
 70
     1
  0
XRECORD
  5
219
102
{ACAD_REACTORS
330
218
102
}
330
218
100
AcDbXrecord
280
     1
102
RTVSPropertyOp0
 70
     1
102
RTVSPropertyOp1
 70
     1
102
RTVSPropertyOp2
 70
     1
102
RTVSPropertyOp3
 70
     1
102
RTVSPropertyOp4
 70
     1
102
RTVSPropertyOp5
 70
     1
102
RTVSPropertyOp6
 70
     1
102
RTVSPropertyOp7
 70
     1
102
RTVSPropertyOp8
 70
     1
102
RTVSPropertyOp9
 70
     1
102
RTVSPropertyOp10
 70
     1
102
RTVSPropertyOp11
 70
     1
102
RTVSPropertyOp12
 70
     1
102
RTVSPropertyOp13
 70
     1
102
RTVSPropertyOp14
 70
     1
102
RTVSPropertyOp15
 70
     1
102
RTVSPropertyOp16
 70
     1
102
RTVSPropertyOp17
 70
     1
102
RTVSPropertyOp18
 70
     1
102
RTVSPropertyOp19
 70
     1
102
RTVSPropertyOp20
 70
     1
102
RTVSPropertyOp21
 70
     1
102
RTVSPropertyOp22
 70
     1
102
RTVSPropertyOp23
 70
     1
102
RTVSPropertyOp24
 70
     1
102
RTVSPropertyOp25
 70
     1
102
RTVSPropertyOp26
 70
     1
102
RTVSPropertyOp27
 70
     1
  0
XRECORD
  5
233
102
{ACAD_REACTORS
330
232
102
}
330
232
100
AcDbXrecord
280
     1
102
RTVSPropertyOp0
 70
     0
102
RTVSPropertyOp1
 70
     0
102
RTVSPropertyOp2
 70
     0
102
RTVSPropertyOp3
 70
     0
102
RTVSPropertyOp4
 70
     0
102
RTVSPropertyOp5
 70
     0
102
RTVSPropertyOp6
 70
     0
102
RTVSPropertyOp7
 70
     0
102
RTVSPropertyOp8
 70
     0
102
RTVSPropertyOp9
 70
     0
102
RTVSPropertyOp10
 70
     0
102
RTVSPropertyOp11
 70
     0
102
RTVSPropertyOp12
 70
     0
102
RTVSPropertyOp13
 70
     0
102
RTVSPropertyOp14
 70
     2
102
RTVSPropertyOp15
 70
     0
102
RTVSPropertyOp16
 70
     0
102
RTVSPropertyOp17
 70
     0
102
RTVSPropertyOp18
 70
     0
102
RTVSPropertyOp19
 70
     0
102
RTVSPropertyOp20
 70
     0
102
RTVSPropertyOp21
 70
     0
102
RTVSPropertyOp22
 70
     0
102
RTVSPropertyOp23
 70
     0
102
RTVSPropertyOp24
 70
     0
102
RTVSPropertyOp25
 70
     0
102
RTVSPropertyOp26
 70
     0
102
RTVSPropertyOp27
 70
     0
  0
XRECORD
  5
22D
102
{ACAD_REACTORS
330
22C
102
}
330
22C
100
AcDbXrecord
280
     1
102
RTVSPropertyOp0
 70
     1
102
RTVSPropertyOp1
 70
     1
102
RTVSPropertyOp2
 70
     1
102
RTVSPropertyOp3
 70
     1
102
RTVSPropertyOp4
 70
     1
102
RTVSPropertyOp5
 70
     1
102
RTVSPropertyOp6
 70
     1
102
RTVSPropertyOp7
 70
     1
102
RTVSPropertyOp8
 70
     1
102
RTVSPropertyOp9
 70
     1
102
RTVSPropertyOp10
 70
     1
102
RTVSPropertyOp11
 70
     1
102
RTVSPropertyOp12
 70
     1
102
RTVSPropertyOp13
 70
     1
102
RTVSPropertyOp14
 70
     1
102
RTVSPropertyOp15
 70
     1
102
RTVSPropertyOp16
 70
     1
102
RTVSPropertyOp17
 70
     1
102
RTVSPropertyOp18
 70
     1
102
RTVSPropertyOp19
 70
     1
102
RTVSPropertyOp20
 70
     1
102
RTVSPropertyOp21
 70
     1
102
RTVSPropertyOp22
 70
     1
102
RTVSPropertyOp23
 70
     1
102
RTVSPropertyOp24
 70
     1
102
RTVSPropertyOp25
 70
     1
102
RTVSPropertyOp26
 70
     1
102
RTVSPropertyOp27
 70
     1
  0
XRECORD
  5
235
102
{ACAD_REACTORS
330
234
102
}
330
234
100
AcDbXrecord
280
     1
102
RTVSPropertyOp0
 70
     0
102
RTVSPropertyOp1
 70
     0
102
RTVSPropertyOp2
 70
     0
102
RTVSPropertyOp3
 70
     0
102
RTVSPropertyOp4
 70
     0
102
RTVSPropertyOp5
 70
     0
102
RTVSPropertyOp6
 70
     0
102
RTVSPropertyOp7
 70
     0
102
RTVSPropertyOp8
 70
     0
102
RTVSPropertyOp9
 70
     0
102
RTVSPropertyOp10
 70
     0
102
RTVSPropertyOp11
 70
     0
102
RTVSPropertyOp12
 70
     0
102
RTVSPropertyOp13
 70
     0
102
RTVSPropertyOp14
 70
     2
102
RTVSPropertyOp15
 70
     0
102
RTVSPropertyOp16
 70
     0
102
RTVSPropertyOp17
 70
     0
102
RTVSPropertyOp18
 70
     0
102
RTVSPropertyOp19
 70
     0
102
RTVSPropertyOp20
 70
     0
102
RTVSPropertyOp21
 70
     0
102
RTVSPropertyOp22
 70
     0
102
RTVSPropertyOp23
 70
     0
102
RTVSPropertyOp24
 70
     0
102
RTVSPropertyOp25
 70
     0
102
RTVSPropertyOp26
 70
     0
102
RTVSPropertyOp27
 70
     0
  0
XRECORD
  5
225
102
{ACAD_REACTORS
330
224
102
}
330
224
100
AcDbXrecord
280
     1
102
RTVSPropertyOp0
 70
     1
102
RTVSPropertyOp1
 70
     1
102
RTVSPropertyOp2
 70
     1
102
RTVSPropertyOp3
 70
     1
102
RTVSPropertyOp4
 70
     1
102
RTVSPropertyOp5
 70
     1
102
RTVSPropertyOp6
 70
     1
102
RTVSPropertyOp7
 70
     1
102
RTVSPropertyOp8
 70
     1
102
RTVSPropertyOp9
 70
     1
102
RTVSPropertyOp10
 70
     1
102
RTVSPropertyOp11
 70
     1
102
RTVSPropertyOp12
 70
     1
102
RTVSPropertyOp13
 70
     1
102
RTVSPropertyOp14
 70
     1
102
RTVSPropertyOp15
 70
     1
102
RTVSPropertyOp16
 70
     1
102
RTVSPropertyOp17
 70
     1
102
RTVSPropertyOp18
 70
     1
102
RTVSPropertyOp19
 70
     1
102
RTVSPropertyOp20
 70
     1
102
RTVSPropertyOp21
 70
     1
102
RTVSPropertyOp22
 70
     1
102
RTVSPropertyOp23
 70
     1
102
RTVSPropertyOp24
 70
     1
102
RTVSPropertyOp25
 70
     1
102
RTVSPropertyOp26
 70
     1
102
RTVSPropertyOp27
 70
     1
  0
XRECORD
  5
22B
102
{ACAD_REACTORS
330
22A
102
}
330
22A
100
AcDbXrecord
280
     1
102
RTVSPropertyOp0
 70
     1
102
RTVSPropertyOp1
 70
     1
102
RTVSPropertyOp2
 70
     1
102
RTVSPropertyOp3
 70
     1
102
RTVSPropertyOp4
 70
     1
102
RTVSPropertyOp5
 70
     1
102
RTVSPropertyOp6
 70
     1
102
RTVSPropertyOp7
 70
     1
102
RTVSPropertyOp8
 70
     1
102
RTVSPropertyOp9
 70
     1
102
RTVSPropertyOp10
 70
     1
102
RTVSPropertyOp11
 70
     1
102
RTVSPropertyOp12
 70
     1
102
RTVSPropertyOp13
 70
     1
102
RTVSPropertyOp14
 70
     1
102
RTVSPropertyOp15
 70
     1
102
RTVSPropertyOp16
 70
     1
102
RTVSPropertyOp17
 70
     1
102
RTVSPropertyOp18
 70
     1
102
RTVSPropertyOp19
 70
     1
102
RTVSPropertyOp20
 70
     1
102
RTVSPropertyOp21
 70
     1
102
RTVSPropertyOp22
 70
     1
102
RTVSPropertyOp23
 70
     1
102
RTVSPropertyOp24
 70
     1
102
RTVSPropertyOp25
 70
     1
102
RTVSPropertyOp26
 70
     1
102
RTVSPropertyOp27
 70
     1
  0
ENDSEC
  0
EOF
